TryHackX - Forum

Hobbit Trylogia / The Hobbit Trilogy (2012-2014) [75.30 GB] [M/LP/NP] [HEVC 18.4 Mb/s] [DTS 1 509 kb/s] [AC-3 448 kb/s]

dominikk26

  • Administrator
  • Nowy użytkownik
  • *****
    • Wiadomości: 14
    • Reputacja +0/-0
    • Zobacz profil
Hobbit Trylogia / The Hobbit Trilogy (2012-2014) [75.30 GB] [M/LP/NP] [HEVC 18.4 Mb/s] [DTS 1 509 kb/s] [AC-3 448 kb/s]

Szybki podgląd:
Polski tytuł: Hobbit Trylogia - Hobbit: Niezwykła podróż, Hobbit: Pustkowie Smauga, Hobbit: Bitwa Pięciu Armii.
Angielski tytuł: The Hobbit Trilogy - The Hobbit: An Unexpected Journey, The Hobbit: The Desolation of Smaug, The Hobbit: The Battle of the Five Armies.
Rok premiery: 2012, 2013, 2014
Rozmiar: 75.30 GB, Czas trwania: 3 h 2 min - 3 h 6 min - 2 h 44 min, Typ wydania: BluRay
Informacje językowe: Dźwięk Angielski, Dźwięk lektor Polski, Napisy Polskie.
Sorry but you are not allowed to view spoiler contents.

Writing library: libebml v1.3.9 + libmatroska v1.5.2 + x265 3.1.2

Format: HEVC, Codec ID: V_MPEGH/ISO/HEVC, Bit rate: 18.2 Mb/s - 18.2 Mb/s - 18.4 Mb/s, Original frame rate: 23.976 FPS
Width: 1 920 pixels, Height: 1 080 pixels, Display aspect ratio: 16:9, Stream size: 23.2 GiB (90%) - 23.7 GiB (90%) - 21.1 GiB (90%)

Audio: #1, Format: DTS, Codec ID: A_DTS, Bit rate: 1 509 kb/s, Sampling rate: 48.0 kHz, Bit depth: 24 bits
Language: English, Channel(s): 6 channels, Channel layout: C L R Ls Rs LFE, Stream size: 1.92 GiB (7%) - 1.97 GiB (7%) - 1.73 GiB (7%)

Audio: #2, Format: AC-3, Codec ID: A_AC3, Bit rate: 448 kb/s, Sampling rate: 48.0 kHz, Bit depth: 16 bits
Language: Polish, Channel(s): 6 channels, Channel layout: L R C LFE Ls Rs, Stream size: 585 MiB (2%) - 598 MiB - (2%) 526 MiB (2%)

Text: #1, Language: Polish, Format: PGS, Codec ID: S_HDMV/PGS

Informacje:
Ogólne (2012 - 2014):
Reżyseria: Peter Jackson
Scenariusz: Peter Jackson, Guillermo del Toro, Fran Walsh, Philippa Boyens
Gatunek: Fantasy, Przygodowy
Produkcja: Nowa Zelandia, USA
Hobbit: Niezwykła podróż (2012):
Tytuł: Hobbit: Niezwykła podróż / The Hobbit: An Unexpected Journey
Ocena: IMDB - 7,8/10 (730 459), Filmweb - 7,6/10 (372 572)
Premiera: 25 grudnia 2012 (Polska), 28 listopada 2012 (świat)
Box Office:: $1 017 003 568
Nagrody: 3 oraz 28 nominacji
Hobbit: Pustkowie Smauga (2013):
Tytuł: Hobbit: Pustkowie Smauga / The Hobbit: The Desolation of Smaug
Ocena: IMDB - 7,8/10 (576 113), Filmweb - 7,6/10 (299 319)
Premiera: 25 grudnia 2013 (Polska), 2 grudnia 2013 (świat)
Box Office:: $960 366 855
Nagrody: 2 oraz 31 nominacji
Hobbit: Bitwa Pięciu Armii (2014):
Tytuł: Hobbit: Bitwa Pięciu Armii / The Hobbit: The Battle of the Five Armies
Ocena: IMDB - 7,4/10 (449 384), Filmweb - 7,2/10 (224 603)
Premiera: 25 grudnia 2014 (Polska), 1 grudnia 2014 (świat)
Box Office:: $955 119 788
Nagrody: 3 oraz 18 nominacji

Opis:
Hobbit: Niezwykła podróż (2012):
Hobbit Bilbo Baggins wyrusza w niebezpieczną podroż, by wraz z czarodziejem Gandalfem i trzynastoma krasnoludami pokonać smoka Smauga.
Hobbit: Pustkowie Smauga (2013):
Hobbit Bilbo Baggins razem z Gandalfem oraz trzynastoma krasnoludami zmierza do legowiska smoka Smauga. Bohaterowie chcą pokonać bestię i odebrać jej złoto, które ukradła.
Hobbit: Bitwa Pięciu Armii (2014):
Krasnoludy z Ereboru odzyskują ojczyznę, ściągając gniew smoka. Wolne istoty Śródziemia łączą siły przeciwko Sauronowi, który wysyła legiony orków na Samotną Górę.

Etykieta: (Czasami należy się zalogować aby zobaczyć)


Obsada:
Martin Freeman jako Bilbo Baggins
Ian McKellen jako Gandalf Szary
Richard Armitage jako Thorin Dębowa Tarcza
Ken Stott jako Balin
Graham McTavish jako Dwalin
William Kircher jako Bifur / Troll Tom
James Nesbitt jako Bofur
Stephen Hunter jako Bombur
Orlando Bloom jako Legolas
Evangeline Lilly jako Tauriel
Luke Evans jako Bard / Girion
Lee Pace jako Król Thranduil

Informacje dodatkowe:
Jest to zrzutka z bluray, HEVC 1 920 pixels x 1080 pixels oraz ogólnym średnim bitrate 20.2 Mb/s - 20.4 Mb/s oraz AC-3 - DTS bitrate 448 kb/s - 1 509 kb/s, 48.0 kHz, 6 channels. Napisy oryginale w formacie PGS.

Dane techniczne:
Kod: (The Hobbit An Unexpected Journey (2012)) You are not allowed to view links. Register or Login
General
Unique ID                                : 73633372292414564054756797034112073882 (0x3765458B89809D5E930FEE2A56E9C09A)
Complete name                            : The Hobbit An Unexpected Journey (2012).mkv
Format                                   : Matroska
Format version                           : Version 4
File size                                : 25.7 GiB
Duration                                 : 3 h 2 min
Overall bit rate                         : 20.2 Mb/s
Movie name                               : The Hobbit: An Unexpected Journey Extended Edition Part 1
Encoded date                             : UTC 2019-12-25 23:44:23
Writing application                      : mkvmerge v41.0.0 ('Smarra') 64-bit
Writing library                          : libebml v1.3.9 + libmatroska v1.5.2
Cover                                    : Yes
Attachments                              : cover.jpg / cover.jpg

Video
ID                                       : 1
Format                                   : HEVC
Format/Info                              : High Efficiency Video Coding
Format profile                           : Main@L4@High
Codec ID                                 : V_MPEGH/ISO/HEVC
Duration                                 : 3 h 2 min
Bit rate                                 : 18.2 Mb/s
Width                                    : 1 920 pixels
Height                                   : 1 080 pixels
Display aspect ratio                     : 16:9
Frame rate mode                          : Constant
Frame rate                               : 23.976 (24000/1001) FPS
Color space                              : YUV
Chroma subsampling                       : 4:2:0
Bit depth                                : 8 bits
Bits/(Pixel*Frame)                       : 0.366
Stream size                              : 23.2 GiB (90%)
Writing library                          : x265 3.1.2:[Windows][MSVC 1900][64 bit] 8bit
Encoding settings                        : cpuid=1111039 / frame-threads=4 / numa-pools=16 / wpp / no-pmode / no-pme / no-psnr / no-ssim / log-level=2 / input-csp=1 / input-res=1920x1080 / interlace=0 / total-frames=0 / level-idc=0 / high-tier=1 / uhd-bd=0 / ref=3 / no-allow-non-conformance / no-repeat-headers / annexb / no-aud / no-hrd / info / hash=0 / no-temporal-layers / open-gop / min-keyint=25 / keyint=250 / gop-lookahead=0 / bframes=3 / b-adapt=1 / b-pyramid / bframe-bias=0 / rc-lookahead=40 / lookahead-slices=6 / scenecut=40 / radl=0 / no-splice / no-intra-refresh / ctu=64 / min-cu-size=8 / no-rect / no-amp / max-tu-size=32 / tu-inter-depth=1 / tu-intra-depth=1 / limit-tu=0 / rdoq-level=0 / dynamic-rd=0.00 / no-ssim-rd / signhide / no-tskip / nr-intra=0 / nr-inter=0 / no-constrained-intra / strong-intra-smoothing / max-merge=3 / limit-refs=1 / no-limit-modes / me=3 / subme=5 / merange=16 / temporal-mvp / weightp / weightb / no-analyze-src-pics / deblock=0:0 / sao / no-sao-non-deblock / rd=3 / early-skip / rskip / no-fast-intra / no-tskip-fast / no-cu-lossless / b-intra / no-splitrd-skip / rdpenalty=0 / psy-rd=1.00 / psy-rdoq=0.00 / no-rd-refine / no-lossless / cbqpoffs=0 / crqpoffs=0 / rc=abr / bitrate=18432 / qcomp=0.60 / qpstep=4 / stats-write=0 / stats-read=0 / ipratio=1.40 / pbratio=1.30 / aq-mode=2 / aq-strength=1.00 / cutree / zone-count=0 / no-strict-cbr / qg-size=32 / no-rc-grain / qpmax=69 / qpmin=0 / no-const-vbv / sar=0 / overscan=0 / videoformat=5 / range=0 / colorprim=2 / transfer=2 / colormatrix=2 / chromaloc=0 / display-window=0cll=0,0 / min-luma=0 / max-luma=255 / log2-max-poc-lsb=8 / vui-timing-info / vui-hrd-info / slices=1 / no-opt-qp-pps / no-opt-ref-list-length-pps / no-multi-pass-opt-rps / scenecut-bias=0.05 / no-opt-cu-delta-qp / no-aq-motion / no-hdr / no-hdr-opt / no-dhdr10-opt / no-idr-recovery-sei / analysis-reuse-level=5 / scale-factor=0 / refine-intra=0 / refine-inter=0 / refine-mv=0 / refine-ctu-distortion=0 / no-limit-sao / ctu-info=0 / no-lowpass-dct / refine-analysis-type=0 / copy-pic=1 / max-ausize-factor=1.0 / no-dynamic-refine / no-single-sei / no-hevc-aq / no-svt / no-field / qp-adaptation-range=1.00
Default                                  : Yes
Forced                                   : No

Audio #1
ID                                       : 2
Format                                   : DTS
Format/Info                              : Digital Theater Systems
Codec ID                                 : A_DTS
Duration                                 : 3 h 2 min
Bit rate mode                            : Constant
Bit rate                                 : 1 509 kb/s
Channel(s)                               : 6 channels
Channel layout                           : C L R Ls Rs LFE
Sampling rate                            : 48.0 kHz
Frame rate                               : 93.750 FPS (512 SPF)
Bit depth                                : 24 bits
Compression mode                         : Lossy
Stream size                              : 1.92 GiB (7%)
Language                                 : English
Default                                  : Yes
Forced                                   : No

Audio #2
ID                                       : 3
Format                                   : AC-3
Format/Info                              : Audio Coding 3
Commercial name                          : Dolby Digital
Codec ID                                 : A_AC3
Duration                                 : 3 h 2 min
Bit rate mode                            : Constant
Bit rate                                 : 448 kb/s
Channel(s)                               : 6 channels
Channel layout                           : L R C LFE Ls Rs
Sampling rate                            : 48.0 kHz
Frame rate                               : 31.250 FPS (1536 SPF)
Bit depth                                : 16 bits
Compression mode                         : Lossy
Stream size                              : 585 MiB (2%)
Language                                 : Polish
Service kind                             : Complete Main
Default                                  : No
Forced                                   : No

Text
ID                                       : 4
Format                                   : PGS
Muxing mode                              : zlib
Codec ID                                 : S_HDMV/PGS
Codec ID/Info                            : Picture based subtitle format used on BDs/HD-DVDs
Duration                                 : 3 h 1 min
Bit rate                                 : 37.4 kb/s
Count of elements                        : 4220
Stream size                              : 48.5 MiB (0%)
Language                                 : Polish
Default                                  : Yes
Forced                                   : No
Kod: (The Hobbit - The Desolation of Smaug (2013)) You are not allowed to view links. Register or Login
General
Unique ID                                : 276660393775139804696129347080540409344 (0xD022DA8AC191FD035D26EF674DB84E00)
Complete name                            : The Hobbit - The Desolation of Smaug (2013).mkv
Format                                   : Matroska
Format version                           : Version 4
File size                                : 26.3 GiB
Duration                                 : 3 h 6 min
Overall bit rate                         : 20.2 Mb/s
Encoded date                             : UTC 2019-12-25 13:44:38
Writing application                      : mkvmerge v41.0.0 ('Smarra') 64-bit
Writing library                          : libebml v1.3.9 + libmatroska v1.5.2

Video
ID                                       : 1
Format                                   : HEVC
Format/Info                              : High Efficiency Video Coding
Format profile                           : Main@L4@High
Codec ID                                 : V_MPEGH/ISO/HEVC
Duration                                 : 3 h 6 min
Bit rate                                 : 18.2 Mb/s
Width                                    : 1 920 pixels
Height                                   : 1 080 pixels
Display aspect ratio                     : 16:9
Frame rate mode                          : Constant
Frame rate                               : 23.976 (24000/1001) FPS
Color space                              : YUV
Chroma subsampling                       : 4:2:0
Bit depth                                : 8 bits
Bits/(Pixel*Frame)                       : 0.366
Stream size                              : 23.7 GiB (90%)
Writing library                          : x265 3.1.2:[Windows][MSVC 1900][64 bit] 8bit
Encoding settings                        : cpuid=1111039 / frame-threads=4 / numa-pools=16 / wpp / no-pmode / no-pme / no-psnr / no-ssim / log-level=2 / input-csp=1 / input-res=1920x1080 / interlace=0 / total-frames=0 / level-idc=0 / high-tier=1 / uhd-bd=0 / ref=3 / no-allow-non-conformance / no-repeat-headers / annexb / no-aud / no-hrd / info / hash=0 / no-temporal-layers / open-gop / min-keyint=25 / keyint=250 / gop-lookahead=0 / bframes=3 / b-adapt=1 / b-pyramid / bframe-bias=0 / rc-lookahead=40 / lookahead-slices=6 / scenecut=40 / radl=0 / no-splice / no-intra-refresh / ctu=64 / min-cu-size=8 / no-rect / no-amp / max-tu-size=32 / tu-inter-depth=1 / tu-intra-depth=1 / limit-tu=0 / rdoq-level=0 / dynamic-rd=0.00 / no-ssim-rd / signhide / no-tskip / nr-intra=0 / nr-inter=0 / no-constrained-intra / strong-intra-smoothing / max-merge=3 / limit-refs=1 / no-limit-modes / me=3 / subme=5 / merange=16 / temporal-mvp / weightp / weightb / no-analyze-src-pics / deblock=0:0 / sao / no-sao-non-deblock / rd=3 / early-skip / rskip / no-fast-intra / no-tskip-fast / no-cu-lossless / b-intra / no-splitrd-skip / rdpenalty=0 / psy-rd=1.00 / psy-rdoq=0.00 / no-rd-refine / no-lossless / cbqpoffs=0 / crqpoffs=0 / rc=abr / bitrate=18432 / qcomp=0.60 / qpstep=4 / stats-write=0 / stats-read=0 / ipratio=1.40 / pbratio=1.30 / aq-mode=2 / aq-strength=1.00 / cutree / zone-count=0 / no-strict-cbr / qg-size=32 / no-rc-grain / qpmax=69 / qpmin=0 / no-const-vbv / sar=0 / overscan=0 / videoformat=5 / range=0 / colorprim=2 / transfer=2 / colormatrix=2 / chromaloc=0 / display-window=0cll=0,0 / min-luma=0 / max-luma=255 / log2-max-poc-lsb=8 / vui-timing-info / vui-hrd-info / slices=1 / no-opt-qp-pps / no-opt-ref-list-length-pps / no-multi-pass-opt-rps / scenecut-bias=0.05 / no-opt-cu-delta-qp / no-aq-motion / no-hdr / no-hdr-opt / no-dhdr10-opt / no-idr-recovery-sei / analysis-reuse-level=5 / scale-factor=0 / refine-intra=0 / refine-inter=0 / refine-mv=0 / refine-ctu-distortion=0 / no-limit-sao / ctu-info=0 / no-lowpass-dct / refine-analysis-type=0 / copy-pic=1 / max-ausize-factor=1.0 / no-dynamic-refine / no-single-sei / no-hevc-aq / no-svt / no-field / qp-adaptation-range=1.00
Default                                  : Yes
Forced                                   : No

Audio #1
ID                                       : 2
Format                                   : DTS
Format/Info                              : Digital Theater Systems
Codec ID                                 : A_DTS
Duration                                 : 3 h 6 min
Bit rate mode                            : Constant
Bit rate                                 : 1 509 kb/s
Channel(s)                               : 6 channels
Channel layout                           : C L R Ls Rs LFE
Sampling rate                            : 48.0 kHz
Frame rate                               : 93.750 FPS (512 SPF)
Bit depth                                : 24 bits
Compression mode                         : Lossy
Stream size                              : 1.97 GiB (7%)
Language                                 : English
Default                                  : Yes
Forced                                   : No

Audio #2
ID                                       : 3
Format                                   : AC-3
Format/Info                              : Audio Coding 3
Commercial name                          : Dolby Digital
Codec ID                                 : A_AC3
Duration                                 : 3 h 6 min
Bit rate mode                            : Constant
Bit rate                                 : 448 kb/s
Channel(s)                               : 6 channels
Channel layout                           : L R C LFE Ls Rs
Sampling rate                            : 48.0 kHz
Frame rate                               : 31.250 FPS (1536 SPF)
Bit depth                                : 16 bits
Compression mode                         : Lossy
Stream size                              : 598 MiB (2%)
Language                                 : Polish
Service kind                             : Complete Main
Default                                  : No
Forced                                   : No

Text
ID                                       : 4
Format                                   : PGS
Muxing mode                              : zlib
Codec ID                                 : S_HDMV/PGS
Codec ID/Info                            : Picture based subtitle format used on BDs/HD-DVDs
Duration                                 : 3 h 5 min
Bit rate                                 : 17.7 kb/s
Count of elements                        : 4212
Stream size                              : 23.5 MiB (0%)
Language                                 : Polish
Default                                  : No
Forced                                   : No
Kod: (The Hobbit - The Battle of the Five Armies (2014)) You are not allowed to view links. Register or Login
General
Unique ID                                : 285946431900787653774207767557065940714 (0xD71F4791D2D62525760CAA2E543C1EEA)
Complete name                            : The Hobbit - The Battle of the Five Armies (2014).mkv
Format                                   : Matroska
Format version                           : Version 4
File size                                : 23.3 GiB
Duration                                 : 2 h 44 min
Overall bit rate                         : 20.4 Mb/s
Encoded date                             : UTC 2019-12-25 18:04:22
Writing application                      : mkvmerge v41.0.0 ('Smarra') 64-bit
Writing library                          : libebml v1.3.9 + libmatroska v1.5.2

Video
ID                                       : 1
Format                                   : HEVC
Format/Info                              : High Efficiency Video Coding
Format profile                           : Main@L4@High
Codec ID                                 : V_MPEGH/ISO/HEVC
Duration                                 : 2 h 44 min
Bit rate                                 : 18.4 Mb/s
Width                                    : 1 920 pixels
Height                                   : 1 080 pixels
Display aspect ratio                     : 16:9
Frame rate mode                          : Constant
Frame rate                               : 23.976 (24000/1001) FPS
Color space                              : YUV
Chroma subsampling                       : 4:2:0
Bit depth                                : 8 bits
Bits/(Pixel*Frame)                       : 0.370
Stream size                              : 21.1 GiB (90%)
Writing library                          : x265 3.1.2:[Windows][MSVC 1900][64 bit] 8bit
Encoding settings                        : cpuid=1111039 / frame-threads=4 / numa-pools=16 / wpp / no-pmode / no-pme / no-psnr / no-ssim / log-level=2 / input-csp=1 / input-res=1920x1080 / interlace=0 / total-frames=0 / level-idc=0 / high-tier=1 / uhd-bd=0 / ref=3 / no-allow-non-conformance / no-repeat-headers / annexb / no-aud / no-hrd / info / hash=0 / no-temporal-layers / open-gop / min-keyint=25 / keyint=250 / gop-lookahead=0 / bframes=3 / b-adapt=1 / b-pyramid / bframe-bias=0 / rc-lookahead=40 / lookahead-slices=6 / scenecut=40 / radl=0 / no-splice / no-intra-refresh / ctu=64 / min-cu-size=8 / no-rect / no-amp / max-tu-size=32 / tu-inter-depth=1 / tu-intra-depth=1 / limit-tu=0 / rdoq-level=0 / dynamic-rd=0.00 / no-ssim-rd / signhide / no-tskip / nr-intra=0 / nr-inter=0 / no-constrained-intra / strong-intra-smoothing / max-merge=3 / limit-refs=1 / no-limit-modes / me=3 / subme=5 / merange=16 / temporal-mvp / weightp / weightb / no-analyze-src-pics / deblock=0:0 / sao / no-sao-non-deblock / rd=3 / early-skip / rskip / no-fast-intra / no-tskip-fast / no-cu-lossless / b-intra / no-splitrd-skip / rdpenalty=0 / psy-rd=1.00 / psy-rdoq=0.00 / no-rd-refine / no-lossless / cbqpoffs=0 / crqpoffs=0 / rc=abr / bitrate=18432 / qcomp=0.60 / qpstep=4 / stats-write=0 / stats-read=0 / ipratio=1.40 / pbratio=1.30 / aq-mode=2 / aq-strength=1.00 / cutree / zone-count=0 / no-strict-cbr / qg-size=32 / no-rc-grain / qpmax=69 / qpmin=0 / no-const-vbv / sar=0 / overscan=0 / videoformat=5 / range=0 / colorprim=2 / transfer=2 / colormatrix=2 / chromaloc=0 / display-window=0cll=0,0 / min-luma=0 / max-luma=255 / log2-max-poc-lsb=8 / vui-timing-info / vui-hrd-info / slices=1 / no-opt-qp-pps / no-opt-ref-list-length-pps / no-multi-pass-opt-rps / scenecut-bias=0.05 / no-opt-cu-delta-qp / no-aq-motion / no-hdr / no-hdr-opt / no-dhdr10-opt / no-idr-recovery-sei / analysis-reuse-level=5 / scale-factor=0 / refine-intra=0 / refine-inter=0 / refine-mv=0 / refine-ctu-distortion=0 / no-limit-sao / ctu-info=0 / no-lowpass-dct / refine-analysis-type=0 / copy-pic=1 / max-ausize-factor=1.0 / no-dynamic-refine / no-single-sei / no-hevc-aq / no-svt / no-field / qp-adaptation-range=1.00
Default                                  : Yes
Forced                                   : No

Audio #1
ID                                       : 2
Format                                   : DTS
Format/Info                              : Digital Theater Systems
Codec ID                                 : A_DTS
Duration                                 : 2 h 44 min
Bit rate mode                            : Constant
Bit rate                                 : 1 509 kb/s
Channel(s)                               : 6 channels
Channel layout                           : C L R Ls Rs LFE
Sampling rate                            : 48.0 kHz
Frame rate                               : 93.750 FPS (512 SPF)
Bit depth                                : 24 bits
Compression mode                         : Lossy
Stream size                              : 1.73 GiB (7%)
Default                                  : Yes
Forced                                   : No

Audio #2
ID                                       : 3
Format                                   : AC-3
Format/Info                              : Audio Coding 3
Commercial name                          : Dolby Digital
Codec ID                                 : A_AC3
Duration                                 : 2 h 44 min
Bit rate mode                            : Constant
Bit rate                                 : 448 kb/s
Channel(s)                               : 6 channels
Channel layout                           : L R C LFE Ls Rs
Sampling rate                            : 48.0 kHz
Frame rate                               : 31.250 FPS (1536 SPF)
Bit depth                                : 16 bits
Compression mode                         : Lossy
Stream size                              : 526 MiB (2%)
Language                                 : Polish
Service kind                             : Complete Main
Default                                  : No
Forced                                   : No

Text
ID                                       : 4
Format                                   : PGS
Muxing mode                              : zlib
Codec ID                                 : S_HDMV/PGS
Codec ID/Info                            : Picture based subtitle format used on BDs/HD-DVDs
Duration                                 : 2 h 43 min
Bit rate                                 : 14.2 kb/s
Count of elements                        : 3052
Stream size                              : 16.6 MiB (0%)
Language                                 : Polish
Default                                  : No
Forced                                   : No

Podgląd:

Download:
Sorry but you are not allowed to view spoiler contents.

You are not allowed to view links. Register or Login
You are not allowed to view links. Register or Login

Warezy:
Sorry but you are not allowed to view spoiler contents.
« Ostatnia zmiana: Styczeń 27, 2020, 01:09:48 am wysłana przez dominikk26 »