TryHackX - Forum

Oblicze mroku / Look Away (2018) [18.8 GB] [M/LP/NP] [AVC 37Mb/s] [DTS XLL 1 961 kb/s] [DTS 1 509 kb/s] [AC-3 448 kb/s]

dominikk26

  • Administrator
  • Nowy użytkownik
  • *****
    • Wiadomości: 14
    • Reputacja +0/-0
    • Zobacz profil
Oblicze mroku / Look Away (2018) [18.8 GB] [M/LP/NP] [AVC 37Mb/s] [DTS XLL 1 961 kb/s] [DTS 1 509 kb/s] [AC-3 448 kb/s]

Szybki podgląd:
Polski tytuł: Oblicze mroku
Angielski tytuł: Look Away
Rok premiery: 2018
Rozmiar: 18.8 GB, Czas trwania: 1 h 43 min, Typ wydania: BluRay
Informacje językowe: Dźwięk Angielski, Dźwięk lektor Polski, Napisy Polskie, Napisy Niemieckie.
Sorry but you are not allowed to view spoiler contents.

Writing library: libebml v1.3.4 + libmatroska v1.4.5

Format: AVC, Codec ID: V_MPEG4/ISO/AVC, Bit rate: 22.1 Mb/s, Maximum bit rate: 37.0 Mb/s, Original frame rate: 23.976 FPS
Width: 1 920 pixels, Height: 1 080 pixels, Display aspect ratio: 16:9, Stream size: 16.0 GiB (85%)

Audio: #1, Format: AC-3, Codec ID: A_AC3, Bit rate: 448 kb/s, Sampling rate: 48.0 kHz, Bit depth: 16 bits
Language: Polish, Channel(s): 6 channels, Channel layout: L R C LFE Ls Rs, Stream size: 332 MiB (2%)

Audio: #2, Format: DTS XLL, Codec ID: A_DTS, Bit rate: 1 961 kb/s, Sampling rate: 48.0 kHz, Bit depth: 16 bits
Language: English, Channel(s): 6 channels, Channel layout: C L R Ls Rs LFE, Stream size: 1.42 GiB (8%)

Audio: #3, Format: DTS, Codec ID: A_DTS, Bit rate: 1 509 kb/s, Sampling rate: 48.0 kHz, Bit depth: 16 bits
Language: English, Channel(s): 6 channels, Channel layout: C L R Ls Rs LFE, Stream size: 1.09 GiB (6%)

Text: #1, Language: Polish, Format:, PGS Codec ID: S_HDMV/PGS
Text: #2, Language: German, Format:, PGS Codec ID: S_HDMV/PGS

Informacje:
Tytuł: Oblicze mroku / Look Away
Ocena: IMDB - 6,2/10 (13 266), Filmweb - 5,6/10 (6 701)
Reżyseria: Assaf Bernstein
Scenariusz: Assaf Bernstein
Gatunek: Thriller
Produkcja: USA / Canada
Premiera: 2 listopada 2018 (Polska) 12 października 2018 (świat)
Box Office: $1,119,537

Opis:
Gnębiona oraz upokarzana przez rówieśników licealistka zwierza się własnemu odbiciu w lustrze. Tymczasem wspierający ją, lustrzany obraz, to bezwzględna i głodna przemocy Airam.

Etykieta: (Czasami należy się zalogować aby zobaczyć)


Obsada:
India Eisley jako Maria / Airam   
Jason Isaacs jako Dan   
Mira Sorvino jako Amy      
Penelope Mitchell jako Lily      
John C. MacDonald jako Mark      
Harrison Gilbertson jako Sean      
Kristen Harris jako Naomi      
Kiera Johnson jako Ginny

Informacje dodatkowe:
Jest to zrzutka z bluray, AVC 1 920 pixels x 1080 pixels oraz ogólnym bitrate 26.0 Mb/s oraz AC-3 - DTS - DTS XLL bitrate 448 kb/s - 1 509kb/s - 1 961 kb/s, 48.0 kHz, 6 channels.

Dane techniczne:
Kod: You are not allowed to view links. Register or Login
General
Unique ID                                : 243087477082298743500293806432237807117 (0xB6E0F1F38129F3858D30D9BFC5F2660D)
Complete name                            : Oblicze Mroku - Lookaway Dual - (2018) BluRay.1080.AVC.AC-3.Multi.6Channels.mkv
Format                                   : Matroska
Format version                           : Version 2
File size                                : 18.8 GiB
Duration                                 : 1 h 43 min
Overall bit rate mode                    : Variable
Overall bit rate                         : 26.0 Mb/s
Movie name                               : lookaway-dual-remux-p2p
Encoded date                             : UTC 2019-07-28 21:54:42
Writing application                      : DVDFab 10.2.1.7
Writing library                          : libebml v1.3.4 + libmatroska v1.4.5

Video
ID                                       : 1
Format                                   : AVC
Format/Info                              : Advanced Video Codec
Format profile                           : High@L4.1
Format settings                          : CABAC / 3 Ref Frames
Format settings, CABAC                   : Yes
Format settings, ReFrames                : 3 frames
Codec ID                                 : V_MPEG4/ISO/AVC
Duration                                 : 1 h 43 min
Bit rate mode                            : Variable
Bit rate                                 : 22.1 Mb/s
Maximum bit rate                         : 37.0 Mb/s
Width                                    : 1 920 pixels
Height                                   : 1 080 pixels
Display aspect ratio                     : 16:9
Frame rate mode                          : Constant
Frame rate                               : 23.976 (24000/1001) FPS
Color space                              : YUV
Chroma subsampling                       : 4:2:0
Bit depth                                : 8 bits
Scan type                                : Progressive
Bits/(Pixel*Frame)                       : 0.444
Stream size                              : 16.0 GiB (85%)
Default                                  : Yes
Forced                                   : No

Audio #1
ID                                       : 2
Format                                   : AC-3
Format/Info                              : Audio Coding 3
Commercial name                          : Dolby Digital
Codec ID                                 : A_AC3
Duration                                 : 1 h 43 min
Bit rate mode                            : Constant
Bit rate                                 : 448 kb/s
Channel(s)                               : 6 channels
Channel layout                           : L R C LFE Ls Rs
Sampling rate                            : 48.0 kHz
Frame rate                               : 31.250 FPS (1536 SPF)
Bit depth                                : 16 bits
Compression mode                         : Lossy
Stream size                              : 332 MiB (2%)
Language                                 : Polish
Service kind                             : Complete Main
Default                                  : Yes
Forced                                   : No

Audio #2
ID                                       : 3
Format                                   : DTS XLL
Format/Info                              : Digital Theater Systems
Commercial name                          : DTS-HD Master Audio
Codec ID                                 : A_DTS
Duration                                 : 1 h 43 min
Bit rate mode                            : Variable
Bit rate                                 : 1 961 kb/s
Channel(s)                               : 6 channels
Channel layout                           : C L R Ls Rs LFE
Sampling rate                            : 48.0 kHz
Frame rate                               : 93.750 FPS (512 SPF)
Bit depth                                : 16 bits
Compression mode                         : Lossless
Stream size                              : 1.42 GiB (8%)
Language                                 : English
Default                                  : No
Forced                                   : No

Audio #3
ID                                       : 4
Format                                   : DTS
Format/Info                              : Digital Theater Systems
Codec ID                                 : A_DTS
Duration                                 : 1 h 43 min
Bit rate mode                            : Constant
Bit rate                                 : 1 509 kb/s
Channel(s)                               : 6 channels
Channel layout                           : C L R Ls Rs LFE
Sampling rate                            : 48.0 kHz
Frame rate                               : 93.750 FPS (512 SPF)
Bit depth                                : 16 bits
Compression mode                         : Lossy
Stream size                              : 1.09 GiB (6%)
Language                                 : English
Default                                  : No
Forced                                   : No

Text #1
ID                                       : 5
Format                                   : PGS
Codec ID                                 : S_HDMV/PGS
Codec ID/Info                            : Picture based subtitle format used on BDs/HD-DVDs
Duration                                 : 1 h 35 min
Bit rate                                 : 15.0 kb/s
Count of elements                        : 1374
Stream size                              : 10.2 MiB (0%)
Language                                 : Polish
Default                                  : Yes
Forced                                   : No

Text #2
ID                                       : 6
Format                                   : PGS
Codec ID                                 : S_HDMV/PGS
Codec ID/Info                            : Picture based subtitle format used on BDs/HD-DVDs
Duration                                 : 1 h 37 min
Bit rate                                 : 23.8 kb/s
Count of elements                        : 1580
Stream size                              : 16.5 MiB (0%)
Language                                 : German
Default                                  : No
Forced                                   : No

Menu
00:00:00.000                             : en:(01)00:00:00:000
00:10:36.218                             : en:(02)00:10:36:218
00:19:55.819                             : en:(03)00:19:55:819
00:26:28.795                             : en:(04)00:26:28:795
00:35:57.947                             : en:(05)00:35:57:947
00:43:52.630                             : en:(06)00:43:52:630
00:53:10.896                             : en:(07)00:53:10:896
01:01:52.458                             : en:(08)01:01:52:458
01:09:05.641                             : en:(09)01:09:05:641
01:17:10.042                             : en:(10)01:17:10:042
01:24:25.810                             : en:(11)01:24:25:810
01:37:18.707                             : en:(12)01:37:18:707
01:43:39.296                             : en:(13)01:43:39:296

Podgląd:

Download:
Sorry but you are not allowed to view spoiler contents.

You are not allowed to view links. Register or Login
You are not allowed to view links. Register or Login

Warezy:
Sorry but you are not allowed to view spoiler contents.
« Ostatnia zmiana: Styczeń 27, 2020, 01:12:29 am wysłana przez dominikk26 »