Bruce Wszechmogący / Bruce Almighty (2003) [13,06 GiB] [LP] [AVC 18.1 Mb/s - 22.8 Mb/s] [AAC LC 384 kb/s]
TryHackX - Forum

Bruce Wszechmogący / Bruce Almighty (2003) [13,06 GiB] [LP] [AVC 18.1 Mb/s - 22.8 Mb/s] [AAC LC 384 kb/s]

Offline TryHackX

  • Administrator
  • Aktywny użytkownik
  • *****
    • Wiadomości: 177
    • Reputacja +0/-0
    • Zobacz profil
Bruce Wszechmogący / Bruce Almighty (2003) [13,06 GiB] [LP] [AVC 18.1 Mb/s - 22.8 Mb/s] [AAC LC 384 kb/s]

Szybki podgląd:
Polski tytuł: Bruce Wszechmogący
Angielski tytuł: Bruce Almighty
Rok premiery: 2003, Kategoria wiekowa: 12
Rozmiar: 13,06 GiB, Czas trwania: 1 h 41 min, Typ wydania: DVD
Informacje językowe: Lektor Polski
Przepraszamy, ale nie możesz zobaczyć ukrytej zawartości. Musisz się zalogować, aby zobaczyć tę zawartość.

Writing library: libebml v1.4.2 + libmatroska v1.6.4
Writing application: mkvmerge v64.0.0 [64-bit], Format: Matroska, Version: Version 4
Video: #1, Format: AVC, Codec ID: V_MPEG4/ISO/AVC, Bit rate mode: Variable, Bit rate: 18.1 Mb/s, Maximum bit rate: 22.8 Mb/s, Frame rate: 23.976 (24000/1001) FPS
Width: 1 920 pixels, Height: 1 080 pixels, Display aspect ratio: 16:9, Bit depth: 8 bits, Stream size: 12.8 GiB (98%)

Audio: #1, Format: AAC LC, Codec ID: 2 / A_AAC-2, Bit rate: 384 kb/s, Sampling rate: 48.0 kHz
Language: Polish, Channel(s): 2 channels, Channel layout: L R, Stream size: 276 MiB (2%)

Informacje:
Tytuł: Bruce Wszechmogący / Bruce Almighty
Ocena: IMDB - 6.8/10 (416K), Filmweb - 6,9/10 (483 993)
Nagrody: 7 wins & 9 nominations
Reżyseria: Tom Shadyac
Scenariusz: Steve Oedekerk, Steve Koren
Gatunek: Fantasy, Komedia
Premiera: 14 sierpnia 2003 (Polska), 14 maja 2003 (Świat)
Boxoffice: $484 592 874 na świecie, $242 829 261 w USA, $241 763 613 poza USA
Studio: Universal Pictures (przedstawia)  /  Pit Bull Productions (produkcja)  /  Shady Acres Entertainment (produkcja) / Więcej...
Budżet: $81 000 000
Na podstawie: Steve Koren  (materiały do scenariusza, historia)

Opis:
Reporter, który narzekał nadmiernie na Boga, otrzymuje jego moc i przekona się, że nie łatwo jest rządzić światem.

Większy opis:
Bruce Nolan (Carrey) jest reporterem lokalnej telewizji w Buffalo. Cieszy się popularnością, ma uroczą dziewczynę (Jennifer Aniston, "Jedna jedyna"), wcale jednak nie uważa, że los potraktował go sprawiedliwie. Tak więc, po najgorszym dniu swego życia, Bruce urąga Bogu, zarzucając Mu, że zrujnował jego życie, i że zupełnie nie potrafi zarządzać wszechświatem. Bóg (Morgan Freeman, "Siedem"), usłyszawszy wołania zdesperowanego Bruce'a, odpowiada... i obdarza go taką mocą, jaką sam posiada, chcąc przekonać się, czy Bruce będzie od niego lepszy!

Etykieta:


Obsada:
  • Jim Carrey jako Bruce Nolan
  • Jennifer Aniston jako Grace Connelly
  • Morgan Freeman jako God
  • Philip Baker Hall jako Jack Baylor
  • Catherine Bell jako Susan Ortega
  • Lisa Ann Walter jako Debbie
  • Steve Carell jako Evan Baxter, (as Steven Carell)
  • Nora Dunn jako Ally Loman
  • Eddie Jemison jako Bobby
  • Paul Satterfield jako Dallas Coleman
  • Mark Kiely jako Fred Donohue
  • Sally Kirkland jako Anita
  • Tony Bennett jako Tony Bennett
  • Timothy Di Pri jako Bruce's Cameraman, (as Timothy DiPri)
  • Brian Tahash jako Bruce's Soundman
  • Lou Felder jako Pete Fineman
  • Lillian Adams jako Mama Kowolski
  • Christopher Darga jako Vol Kowolski

Dane techniczne:
Kod: (Bruce Almighty (2003)) [Zaznacz]
General
Unique ID                                : 10887824926626758987652188895317843229 (0x830EB36D7113F0050BB6286B62BDD1D)
Complete name                            : Bruce Almighty (2003) [AVC 22.8 Mbs] [AAC LC 384 kbs] [Bluray] [DVD].mkv
Format                                   : Matroska
Format version                           : Version 4
File size                                : 13.1 GiB
Duration                                 : 1 h 41 min
Overall bit rate mode                    : Variable
Overall bit rate                         : 18.5 Mb/s
Frame rate                               : 23.976 FPS
Encoded date                             : 2023-06-04 17:08:11 UTC
Writing application                      : mkvmerge v64.0.0 ('Willows') 64-bit
Writing library                          : libebml v1.4.2 + libmatroska v1.6.4

Video
ID                                       : 1
Format                                   : AVC
Format/Info                              : Advanced Video Codec
Format profile                           : High@L4.1
Format settings                          : CABAC / 3 Ref Frames
Format settings, CABAC                   : Yes
Format settings, Reference frames        : 3 frames
Format settings, GOP                     : M=1, N=24
Codec ID                                 : V_MPEG4/ISO/AVC
Duration                                 : 1 h 41 min
Bit rate mode                            : Variable
Bit rate                                 : 18.1 Mb/s
Maximum bit rate                         : 22.8 Mb/s
Width                                    : 1 920 pixels
Height                                   : 1 080 pixels
Display aspect ratio                     : 16:9
Frame rate mode                          : Constant
Frame rate                               : 23.976 (24000/1001) FPS
Color space                              : YUV
Chroma subsampling                       : 4:2:0
Bit depth                                : 8 bits
Scan type                                : Progressive
Bits/(Pixel*Frame)                       : 0.365
Stream size                              : 12.8 GiB (98%)
Language                                 : English
Default                                  : Yes
Forced                                   : No
Color range                              : Limited
Color primaries                          : BT.709
Transfer characteristics                 : BT.709
Matrix coefficients                      : BT.709

Audio
ID                                       : 2
Format                                   : AAC LC
Format/Info                              : Advanced Audio Codec Low Complexity
Codec ID                                 : 2 / A_AAC-2
Duration                                 : 1 h 41 min
Bit rate                                 : 384 kb/s
Channel(s)                               : 2 channels
Channel layout                           : L R
Sampling rate                            : 48.0 kHz
Frame rate                               : 46.875 FPS (1024 SPF)
Compression mode                         : Lossy
Stream size                              : 276 MiB (2%)
Title                                    : Polski
Language                                 : Polish
Default                                  : Yes
Forced                                   : No

Menu
00:00:00.000                             : en:00:00:00.000
00:05:46.596                             : en:00:05:46.596
00:09:08.256                             : en:00:09:08.256
00:13:18.798                             : en:00:13:18.798
00:17:22.083                             : en:00:17:22.083
00:23:00.921                             : en:00:23:00.921
00:25:18.684                             : en:00:25:18.684
00:31:40.190                             : en:00:31:40.190
00:41:10.968                             : en:00:41:10.968
00:47:39.857                             : en:00:47:39.857
00:53:03.222                             : en:00:53:03.222
00:55:25.489                             : en:00:55:25.489
00:57:38.246                             : en:00:57:38.246
01:02:43.551                             : en:01:02:43.551
01:13:07.300                             : en:01:13:07.300
01:19:26.261                             : en:01:19:26.261
01:23:41.725                             : en:01:23:41.725
01:25:43.597                             : en:01:25:43.597
01:29:27.445                             : en:01:29:27.445
01:32:38.887                             : en:01:32:38.887


Podgląd:

Download:
Przepraszamy, ale nie możesz zobaczyć ukrytej zawartości. Musisz się zalogować, aby zobaczyć tę zawartość.

Przepraszamy, ale nie możesz zobaczyć ukrytej zawartości. Musisz się zalogować, aby zobaczyć tę zawartość.

Nie masz uprawnień do przeglądania linków. Zarejestruj lub Zaloguj
Pierwszy post: Bruce Wszechmogący / Bruce Almighty (2003) [13,06 GiB] [LP] [AVC 18.1 Mb/s - 22.8 Mb/s] [AAC LC 384 kb/s]