Plan Ucieczki Trylogia / Escape Plan Trilogy (2013 - 2019) [13,0 GiB] [LP] [AVC 5 018 kb/s - 6 032 kb/s] [AC-3 384 kb/s]
TryHackX - Forum

Plan Ucieczki Trylogia / Escape Plan Trilogy (2013 - 2019) [13,0 GiB] [LP] [AVC 5 018 kb/s - 6 032 kb/s] [AC-3 384 kb/s]

Offline TryHackX

  • Administrator
  • Aktywny użytkownik
  • *****
    • Wiadomości: 170
    • Reputacja +0/-0
    • Zobacz profil
Plan Ucieczki Trylogia / Escape Plan Trilogy (2013 - 2019) [13,0 GiB] [LP] [AVC 5 018 kb/s - 6 032 kb/s] [AC-3 384 kb/s]

Szybki podgląd:
Tytuł: Plan Ucieczki Trylogia / Escape Plan Trilogy
Rok premiery: 2013 - 2019, Kategoria wiekowa: 16 (R)
Rozmiar: 13,0 GiB, Czas trwania: ~1 h 42 min 40 sec, Typ wydania: Bluray
Informacje językowe: Lektor Polski
Przepraszamy, ale nie możesz zobaczyć ukrytej zawartości. Musisz się zalogować, aby zobaczyć tę zawartość.




Plan ucieczki / Escape Plan (2013) [4,36 GiB] [LP] [AVC 5 018 kb/s] [AC-3 384 kb/s]

Szybki podgląd:
Polski tytuł: Plan ucieczki
Angielski tytuł: Escape Plan
Rok premiery: 2013, Kategoria wiekowa: 16
Rozmiar: 4,36 GiB, Czas trwania: 1 h 55 min, Typ wydania: Bluray
Informacje językowe: Lektor Polski

Writing library: x264 core 164 r3085, Lavf59.33.100
Writing application: Lavf59.33.100, Format: Matroska, Version: Version 4
Video: #1, Format: AVC, Codec ID: V_MPEG4/ISO/AVC, Bit rate: 5 018 kb/s, Frame rate: 23.976 (24000/1001) FPS
Width: 1 920 pixels, Height: 1 080 pixels, Display aspect ratio: 16:9, Bit depth: 8 bits, Stream size: 3.97 GiB (91%)

Audio: #1, Format: AC-3, Codec ID: A_AC3, Bit rate: 384 kb/s, Sampling rate: 48.0 kHz, Bit depth: 32 bits
Commercial name: Dolby Digital, Language: Unknow, Channel(s): 6 channels, Channel layout: L R C LFE Ls Rs, Stream size: 317 MiB (7%)

Informacje:
Tytuł: Plan ucieczki / Escape Plan
Ocena: IMDB - 6.7/10 (253K), Filmweb - 6,9/10 (79 990)
Nagrody: 2 nominations
Reżyseria: Mikael Håfström
Scenariusz: Miles Chapman, Jason Keller
Gatunek: Thriller, Akcja
Premiera: 18 lipca 2013 (Świat)
Boxoffice: $137 328 301 na świecie, $25 135 965 w USA, $112 192 336 poza USA
Studio: Summit Entertainment (przedstawia)  /  Atmosphere Entertainment MM  /  Boies/Schiller Film Group / więcej
Budżet: $50 000 000
Na podstawie: Miles Chapman  (materiały do scenariusza, historia)

Opis:
Ray to specjalista od zabezpieczeń więziennych. W trakcie testowania nowego projektu mężczyzna zostaje pozbawiony kontaktu ze swoją ekipą i zdany na siebie.

Większy opis:
Ray Breslin (Sylvester Stallone) jest wybitnym specjalistą w dziedzinie zabezpieczeń. Poświęcił życie projektowaniu zakładów karnych, by stworzyć taki, z którego nie da się zbiec. Nie spodziewał się, że pewnego dnia los wystawi go na niezwykłą próbę. Ray zostaje niesprawiedliwie oskarżony i osadzony w więzieniu, które sam zaprojektował. Zrobi wszystko, by uciec i znaleźć tego, który wpakował go za kratki. By zrealizować swój plan, będzie jednak potrzebował wspólnika. Wybór pada na współtowarzysza niedoli, Emila (Arnold Schwarzenegger).

Etykieta:


Obsada:
  • Sylvester Stallone jako Breslin
  • Arnold Schwarzenegger jako Rottmayer
  • 50 Cent jako Hush, (as Curtis '50 Cent' Jackson)
  • Vincent D'Onofrio jako Lester Clark
  • Jim Caviezel jako Hobbes
  • Faran Tahir jako Javed
  • Amy Ryan jako Abigail
  • Sam Neill jako Dr. Kyrie
  • Vinnie Jones jako Drake
  • Matt Gerald jako Roag
  • Caitríona Balfe jako Jessica Miller, (as Caitriona Balfe)
  • David Joseph Martinez jako Captain Newal Beradah
  • Alec Rayme jako Pilot
  • Christian Stokes jako Babcock
  • Graham Beckel jako Brims
  • Rodney Feaster jako Front Gate Guard
  • David Leitch jako Second Lieutenant
  • Lydia Hull jako Receptionist

Dane techniczne:
Kod: (Escape Plan (2013).mkv) [Zaznacz]
General
Unique ID                                : 338255636385091548954807661656002356099 (0xFE79AA783CD639266E5AB12BB4E16383)
Complete name                            : Escape Plan (2013).mkv
Format                                   : Matroska
Format version                           : Version 4
File size                                : 4.37 GiB
Duration                                 : 1 h 55 min
Overall bit rate                         : 5 407 kb/s
Frame rate                               : 23.976 FPS
Encoded date                             : 2022-12-12 22:08:44 UTC
Writing application                      : Lavf59.33.100
Writing library                          : Lavf59.33.100
ErrorDetectionType                       : Per level 1

Video
ID                                       : 1
Format                                   : AVC
Format/Info                              : Advanced Video Codec
Format profile                           : High@L5.2
Format settings                          : CABAC / 3 Ref Frames
Format settings, CABAC                   : Yes
Format settings, Reference frames        : 3 frames
Codec ID                                 : V_MPEG4/ISO/AVC
Duration                                 : 1 h 55 min
Bit rate                                 : 5 018 kb/s
Width                                    : 1 920 pixels
Height                                   : 1 080 pixels
Display aspect ratio                     : 16:9
Frame rate mode                          : Constant
Frame rate                               : 23.976 (24000/1001) FPS
Color space                              : YUV
Chroma subsampling                       : 4:2:0
Bit depth                                : 8 bits
Scan type                                : Progressive
Bits/(Pixel*Frame)                       : 0.101
Stream size                              : 3.97 GiB (91%)
Writing library                          : x264 core 164 r3085
Encoding settings                        : cabac=1 / ref=2 / deblock=1:-1:-1 / analyse=0x3:0x133 / me=umh / subme=9 / psy=1 / psy_rd=1.00:0.15 / mixed_ref=0 / me_range=16 / chroma_me=1 / trellis=1 / 8x8dct=1 / cqm=0 / deadzone=21,11 / fast_pskip=1 / chroma_qp_offset=-3 / threads=12 / lookahead_threads=1 / sliced_threads=0 / nr=0 / decimate=1 / interlaced=0 / bluray_compat=0 / constrained_intra=0 / bframes=3 / b_pyramid=1 / b_adapt=2 / b_bias=0 / direct=3 / weightb=1 / open_gop=0 / weightp=2 / keyint=239 / keyint_min=23 / scenecut=40 / intra_refresh=0 / rc_lookahead=40 / rc=2pass / mbtree=1 / bitrate=5018 / ratetol=1.0 / qcomp=0.60 / qpmin=10 / qpmax=69 / qpstep=4 / cplxblur=20.0 / qblur=0.5 / vbv_maxrate=7460 / vbv_bufsize=24000 / nal_hrd=none / filler=0 / ip_ratio=1.40 / aq=3:1.00
Default                                  : No
Forced                                   : No

Audio
ID                                       : 2
Format                                   : AC-3
Format/Info                              : Audio Coding 3
Commercial name                          : Dolby Digital
Codec ID                                 : A_AC3
Duration                                 : 1 h 55 min
Bit rate mode                            : Constant
Bit rate                                 : 384 kb/s
Channel(s)                               : 6 channels
Channel layout                           : L R C LFE Ls Rs
Sampling rate                            : 48.0 kHz
Frame rate                               : 31.250 FPS (1536 SPF)
Bit depth                                : 32 bits
Compression mode                         : Lossy
Stream size                              : 317 MiB (7%)
Service kind                             : Complete Main
Default                                  : No
Forced                                   : No


Podgląd:


Plan ucieczki 2: Hades / Escape Plan 2: Hades (2018) [4,35 GiB] [LP] [AVC 6 107 kb/s] [AC-3 384 kb/s]

Szybki podgląd:
Polski tytuł: Plan ucieczki 2: Hades
Angielski tytuł: Escape Plan 2: Hades
Rok premiery: 2018, Kategoria wiekowa: R
Rozmiar: 4,35 GiB, Czas trwania: 1 h 36 min, Typ wydania: Bluray
Informacje językowe: Lektor Polski

Writing library: x264 core 164 r3085, Lavf59.33.100
Writing application: Lavf59.33.100, Format: Matroska, Version: Version 4
Video: #1, Format: AVC, Codec ID: V_MPEG4/ISO/AVC, Bit rate: 6 107 kb/s, Frame rate: 23.976 (24000/1001) FPS
Width: 1 920 pixels, Height: 1 080 pixels, Display aspect ratio: 16:9, Bit depth: 8 bits, Stream size: 4.01 GiB (92%)

Audio: #1, Format: AC-3, Codec ID: A_AC3, Bit rate: 384 kb/s, Sampling rate: 48.0 kHz, Bit depth: 32 bits
Commercial name: Dolby Digital, Language: Unknow, Channel(s): 6 channels, Channel layout: L R C LFE Ls Rs, Stream size: 264 MiB (6%)

Informacje:
Tytuł: Plan ucieczki 2: Hades / Escape Plan 2: Hades
Ocena: IMDB - 3.9/10 (34K), Filmweb - 4,4/10 (6 259)
Reżyseria: Steven C. Miller
Scenariusz: Miles Chapman
Gatunek: Thriller, Akcja
Premiera: 13 czerwca 2018 (Świat)
Studio: Emmett/Furla Films  /  Grindstone Entertainment Group  /  Lionsgate
Na podstawie: Miles Chapman  (postacie)

Opis:
Breslin zarządza elitarnym zespołem specjalistów. Gdy znika najbardziej zaufany z nich, mężczyzna postanawia go odnaleźć przy pomocy byłych przyjaciół.

Większy opis:
Ray Breslin (Sylvester Stallone) dowodzi firmą, zajmującą się wydostawaniem ludzi z więzień. Wraz z nowymi członkami tworzą zgraną grupę najlepszych w swoim fachu. Pewnego dnia nieznani sprawcy porywają najbardziej zaufanego człowieka Breslina, Shu (Xiaoming Huang) i umieszczają go w tajemniczym więzieniu o nazwie Hades. Ray musi odnaleźć to miejsce i uratować przyjaciela. Sprawę utrudnia fakt, że Hades zbudowany jest w oparciu o niezwykle zaawansowaną technologię.

Etykieta:


Obsada:
  • Sylvester Stallone jako Ray Breslin
  • Dave Bautista jako Trent DeRosa
  • Xiaoming Huang jako Shu Ren, (as Huang Xiaoming)
  • Jesse Metcalfe jako Luke Graves
  • 50 Cent jako Hush, (as Curtis Jackson)
  • Wes Chatham jako Jaspar Kimbral
  • Chen Tang jako Yusheng Ma
  • Tyron Woodley jako Akala
  • Tyler Jon Olson jako Moe
  • Titus Welliver jako Gregor Faust
  • Shea Buckner jako Larry
  • Jaime King jako Abigail Ross
  • Lydia Hull jako Jules
  • Ashley Cusato jako Mary
  • Yifan Luo jako Red
  • Rowan Bousaid jako MDLF Leader
  • Baylee Curran jako Alice
  • Zeeko Zaki jako MDLF Solider

Dane techniczne:
Kod: (Escape Plan 2 Hades (2018).mkv) [Zaznacz]
General
Unique ID                                : 233993926192899979424186125974885630976 (0xB0099746EC8AF3B4656BB6AE07080400)
Complete name                            : Escape Plan 2 Hades (2018).mkv
Format                                   : Matroska
Format version                           : Version 4
File size                                : 4.35 GiB
Duration                                 : 1 h 36 min
Overall bit rate                         : 6 482 kb/s
Frame rate                               : 23.976 FPS
Encoded date                             : 2022-12-12 19:01:25 UTC
Writing application                      : Lavf59.33.100
Writing library                          : Lavf59.33.100
ErrorDetectionType                       : Per level 1

Video
ID                                       : 1
Format                                   : AVC
Format/Info                              : Advanced Video Codec
Format profile                           : High@L5.2
Format settings                          : CABAC / 3 Ref Frames
Format settings, CABAC                   : Yes
Format settings, Reference frames        : 3 frames
Codec ID                                 : V_MPEG4/ISO/AVC
Duration                                 : 1 h 36 min
Bit rate                                 : 6 107 kb/s
Width                                    : 1 920 pixels
Height                                   : 1 080 pixels
Display aspect ratio                     : 16:9
Frame rate mode                          : Constant
Frame rate                               : 23.976 (24000/1001) FPS
Color space                              : YUV
Chroma subsampling                       : 4:2:0
Bit depth                                : 8 bits
Scan type                                : Progressive
Bits/(Pixel*Frame)                       : 0.123
Stream size                              : 4.01 GiB (92%)
Writing library                          : x264 core 164 r3085
Encoding settings                        : cabac=1 / ref=2 / deblock=1:-1:-1 / analyse=0x3:0x133 / me=umh / subme=9 / psy=1 / psy_rd=1.00:0.15 / mixed_ref=0 / me_range=16 / chroma_me=1 / trellis=1 / 8x8dct=1 / cqm=0 / deadzone=21,11 / fast_pskip=1 / chroma_qp_offset=-3 / threads=12 / lookahead_threads=1 / sliced_threads=0 / nr=0 / decimate=1 / interlaced=0 / bluray_compat=0 / constrained_intra=0 / bframes=3 / b_pyramid=1 / b_adapt=2 / b_bias=0 / direct=3 / weightb=1 / open_gop=0 / weightp=2 / keyint=239 / keyint_min=23 / scenecut=40 / intra_refresh=0 / rc_lookahead=40 / rc=2pass / mbtree=1 / bitrate=6107 / ratetol=1.0 / qcomp=0.60 / qpmin=10 / qpmax=69 / qpstep=4 / cplxblur=20.0 / qblur=0.5 / vbv_maxrate=7460 / vbv_bufsize=24000 / nal_hrd=none / filler=0 / ip_ratio=1.40 / aq=3:1.00
Default                                  : No
Forced                                   : No

Audio
ID                                       : 2
Format                                   : AC-3
Format/Info                              : Audio Coding 3
Commercial name                          : Dolby Digital
Codec ID                                 : A_AC3
Duration                                 : 1 h 36 min
Bit rate mode                            : Constant
Bit rate                                 : 384 kb/s
Channel(s)                               : 6 channels
Channel layout                           : L R C LFE Ls Rs
Sampling rate                            : 48.0 kHz
Frame rate                               : 31.250 FPS (1536 SPF)
Bit depth                                : 32 bits
Compression mode                         : Lossy
Stream size                              : 264 MiB (6%)
Service kind                             : Complete Main
Default                                  : No
Forced                                   : No


Podgląd:


Plan ucieczki 3 / Escape Plan: The Extractors (2019) [4,35 GiB] [LP] [AVC 6 032 kb/s] [AC-3 384 kb/s]

Szybki podgląd:
Polski tytuł: Plan ucieczki 3
Angielski tytuł: Escape Plan: The Extractors
Rok premiery: 2019, Kategoria wiekowa: 16
Rozmiar: 4,35 GiB, Czas trwania: 1 h 37 min, Typ wydania: Bluray
Informacje językowe: Lektor Polski

Writing library: x264 core 164 r3085, Lavf59.33.100
Writing application: Lavf59.33.100, Format: Matroska, Version: Version 4
Video: #1, Format: AVC, Codec ID: V_MPEG4/ISO/AVC, Bit rate: 6 032 kb/s, Frame rate: 23.976 (24000/1001) FPS
Width: 1 920 pixels, Height: 1 080 pixels, Display aspect ratio: 16:9, Bit depth: 8 bits, Stream size: 4.01 GiB (92%)

Audio: #1, Format: AC-3, Codec ID: A_AC3, Bit rate: 384 kb/s, Sampling rate: 48.0 kHz, Bit depth: 32 bits
Commercial name: Dolby Digital, Language: Unknow, Channel(s): 6 channels, Channel layout: L R C LFE Ls Rs, Stream size: 267 MiB (6%)

Informacje:
Tytuł: Plan ucieczki 3 / Escape Plan: The Extractors
Ocena: IMDB - 4.4/10 (16K), Filmweb - 4,6/10 (1 643)
Nagrody: 1 nomination
Reżyseria: John Herzfeld
Scenariusz: Miles Chapman, John Herzfeld
Gatunek: Akcja
Premiera: 8 czerwca 2019 (Świat)
Studio: Ingenious Media (przedstawia)

Opis:
Ray Breslin, chcąc uratować córkę miliardera z Hongkongu, rusza do świetnie strzeżonego więzienia na Łotwie.

Etykieta:


Obsada:
  • Sylvester Stallone jako Ray Breslin
  • Dave Bautista jako Trent DeRosa
  • 50 Cent jako Hush, (as Curtis Jackson)
  • Jin Zhang jako Shen Lo, (as Max Zhang)
  • Harry Shum Jr. jako Bao Yung
  • Devon Sawa jako Lester Clark Jr.
  • Jaime King jako Abigail Ross
  • Lydia Hull jako Jules
  • Melise jako Daya Zhang, (as Malese Jow)
  • Russell Wong jako Wu Zhang
  • Daniel Bernhardt jako Silva
  • Jeff Chase jako Frankie
  • Rob de Groot jako Ralf
  • Boyang Yang jako Wong
  • Sherri Robertson jako Captain Corbin
  • Rich Miller jako Detective Davis
  • Holland Herzfeld jako Sonny
  • Tyler Jon Olson jako Boone

Dane techniczne:
Kod: (Escape Plan The Extractors (2019).mkv) [Zaznacz]
General
Unique ID                                : 75613634680914190113979065147895476331 (0x38E2A804D2AF7502CF5E0DAE402A706B)
Complete name                            : Escape Plan The Extractors (2019).mkv
Format                                   : Matroska
Format version                           : Version 4
File size                                : 4.36 GiB
Duration                                 : 1 h 37 min
Overall bit rate                         : 6 409 kb/s
Frame rate                               : 23.976 FPS
Encoded date                             : 2022-12-12 14:59:58 UTC
Writing application                      : Lavf59.33.100
Writing library                          : Lavf59.33.100
ErrorDetectionType                       : Per level 1

Video
ID                                       : 1
Format                                   : AVC
Format/Info                              : Advanced Video Codec
Format profile                           : High@L5.2
Format settings                          : CABAC / 3 Ref Frames
Format settings, CABAC                   : Yes
Format settings, Reference frames        : 3 frames
Codec ID                                 : V_MPEG4/ISO/AVC
Duration                                 : 1 h 37 min
Bit rate                                 : 6 032 kb/s
Width                                    : 1 920 pixels
Height                                   : 1 080 pixels
Display aspect ratio                     : 16:9
Frame rate mode                          : Constant
Frame rate                               : 23.976 (24000/1001) FPS
Color space                              : YUV
Chroma subsampling                       : 4:2:0
Bit depth                                : 8 bits
Scan type                                : Progressive
Bits/(Pixel*Frame)                       : 0.121
Stream size                              : 4.01 GiB (92%)
Writing library                          : x264 core 164 r3085
Encoding settings                        : cabac=1 / ref=2 / deblock=1:-1:-1 / analyse=0x3:0x133 / me=umh / subme=9 / psy=1 / psy_rd=1.00:0.15 / mixed_ref=0 / me_range=16 / chroma_me=1 / trellis=1 / 8x8dct=1 / cqm=0 / deadzone=21,11 / fast_pskip=1 / chroma_qp_offset=-3 / threads=12 / lookahead_threads=1 / sliced_threads=0 / nr=0 / decimate=1 / interlaced=0 / bluray_compat=0 / constrained_intra=0 / bframes=3 / b_pyramid=1 / b_adapt=2 / b_bias=0 / direct=3 / weightb=1 / open_gop=0 / weightp=2 / keyint=239 / keyint_min=23 / scenecut=40 / intra_refresh=0 / rc_lookahead=40 / rc=2pass / mbtree=1 / bitrate=6032 / ratetol=1.0 / qcomp=0.60 / qpmin=10 / qpmax=69 / qpstep=4 / cplxblur=20.0 / qblur=0.5 / vbv_maxrate=7460 / vbv_bufsize=24000 / nal_hrd=none / filler=0 / ip_ratio=1.40 / aq=3:1.00
Default                                  : No
Forced                                   : No

Audio
ID                                       : 2
Format                                   : AC-3
Format/Info                              : Audio Coding 3
Commercial name                          : Dolby Digital
Codec ID                                 : A_AC3
Duration                                 : 1 h 37 min
Bit rate mode                            : Constant
Bit rate                                 : 384 kb/s
Channel(s)                               : 6 channels
Channel layout                           : L R C LFE Ls Rs
Sampling rate                            : 48.0 kHz
Frame rate                               : 31.250 FPS (1536 SPF)
Bit depth                                : 32 bits
Compression mode                         : Lossy
Stream size                              : 267 MiB (6%)
Service kind                             : Complete Main
Default                                  : No
Forced                                   : No


Podgląd:


Strefa Linków:
Przepraszamy, ale nie możesz zobaczyć ukrytej zawartości. Musisz się zalogować, aby zobaczyć tę zawartość.

Przepraszamy, ale nie możesz zobaczyć ukrytej zawartości. Musisz się zalogować, aby zobaczyć tę zawartość.

Nie masz uprawnień do przeglądania linków. Zarejestruj lub Zaloguj
Pierwszy post: Plan Ucieczki Trylogia / Escape Plan Trilogy (2013 - 2019) [13,0 GiB] [LP] [AVC 5 018 kb/s - 6 032 kb/s] [AC-3 384 kb/s]

« Ostatnia zmiana: 17 Wrzesień 2023, 23:13:39 wysłana przez TryHackX »