Utopia (2020) [26 GiB] [M/LP/DA/NPAM] [AVC 8 636 kb/s - 10 000 kb/s] [E-AC-3 640 kb/s]
TryHackX - Forum

Utopia (2020) [26 GiB] [M/LP/DA/NPAM] [AVC 8 636 kb/s - 10 000 kb/s] [E-AC-3 640 kb/s]

Offline TryHackX

  • Administrator
  • Aktywny użytkownik
  • *****
    • Wiadomości: 170
    • Reputacja +0/-0
    • Zobacz profil
Utopia (2020) [26 GiB] [M/LP/DA/NPAM] [AVC 8 636 kb/s - 10 000 kb/s] [E-AC-3 640 kb/s]

Szybki podgląd:
Polski tytuł: Utopia
Rok premiery: 2020, Kategoria wiekowa: 16, Serial: TV Series
Rozmiar: 26 GiB, Czas trwania: 51 min 10 s, Typ wydania: WEB-DL
Informacje językowe: Lektor Polski, Dubbing Angielski, Napisy Polskie, Napisy Angielskie, Napisy Multi
Przepraszamy, ale nie możesz zobaczyć ukrytej zawartości. Musisz się zalogować, aby zobaczyć tę zawartość.

Writing library: libebml v1.4.4 + libmatroska v1.7.1
Writing application: mkvmerge v77.0 [64-bit], Format: Matroska, Version: Version 4
Video: #3, Format: AVC, Codec ID: V_MPEG4/ISO/AVC, Bit rate mode: Constant, Bit rate: 8 636 kb/s, Nominal bit rate: 10 000 kb/s, Frame rate: 23.976 (24000/1001) FPS
Width: 1 920 pixels, Height: 800 pixels, Display aspect ratio: 2.40:1, Bit depth: 8 bits, Stream size: 3.32 GiB (87%)

Video: #1, Format: AVC, Codec ID: V_MPEG4/ISO/AVC, Bit rate mode: Constant, Bit rate: 8 516 kb/s, Nominal bit rate: 10 000 kb/s, Frame rate: 23.976 (24000/1001) FPS
Width: 1 920 pixels, Height: 800 pixels, Display aspect ratio: 2.40:1, Bit depth: 8 bits, Stream size: 3.00 GiB (87%)

Video: #2, Format: AVC, Codec ID: V_MPEG4/ISO/AVC, Bit rate mode: Constant, Bit rate: 7 533 kb/s, Nominal bit rate: 10 000 kb/s, Frame rate: 23.976 (24000/1001) FPS
Width: 1 920 pixels, Height: 800 pixels, Display aspect ratio: 2.40:1, Bit depth: 8 bits, Stream size: 2.50 GiB (85%)

Audio: #2, Format: E-AC-3, Codec ID: A_EAC3, Bit rate: 640 kb/s, Sampling rate: 48.0 kHz
Commercial name: Dolby Digital Plus, Language: Polish, Channel(s): 6 channels, Channel layout: L R C LFE Ls Rs, Stream size: 234 MiB (7%)

Audio: #1, Format: E-AC-3, Codec ID: A_EAC3, Bit rate: 640 kb/s, Sampling rate: 48.0 kHz
Commercial name: Dolby Digital Plus, Language: English, Channel(s): 6 channels, Channel layout: L R C LFE Ls Rs, Stream size: 231 MiB (7%)

Text: #48, Language: Polish, Format: UTF-8, Codec ID: S_TEXT/UTF8, Codec ID/Info: UTF-8 Plain Text

Text: #59, Language: English, Format: UTF-8, Codec ID: S_TEXT/UTF8, Codec ID/Info: UTF-8 Plain Text

Text: #54, Language: Telugu, Format: UTF-8, Codec ID: S_TEXT/UTF8, Codec ID/Info: UTF-8 Plain Text

Informacje:
Tytuł: Utopia
Ocena: IMDB - 6.7/10 (15K), Filmweb - 6,1/10 (957)
Nagrody: 1 nomination
Twórcy: Gillian Flynn
Gatunek: Thriller
Premiera: 25 września 2020 (Świat)
Studio: Amazon Studios  /  Kudos Film and Television
Na podstawie: Dennis Kelly  (serial TV)
Sezony: 1-1
Epizody: 8

Opis:
"Utopia" to thriller przedstawiający losy młodych fanów trudnego do zdobycia komiksu o tym samym tytule. Zawarty w nim spisek okazuje się istnieć naprawdę, a...

Większy opis:
"Utopia" to thriller przedstawiający losy młodych fanów trudnego do zdobycia komiksu o tym samym tytule. Zawarty w nim spisek okazuje się istnieć naprawdę, a przepowiadana zagłada oraz koniec świata, jaki znamy, zmusza grupkę nerdów do rozpoczęcia pełnej zwrotów akcji gry o wysoką stawkę. Poznane informacje wykorzystują, by ratować siebie, przyjaciół, a ostatecznie naszą cywilizację.

Etykieta:

Obsada:
  • John Cusack jako Dr. Kevin Christie
  • Ashleigh LaThrop jako Becky
  • Dan Byrd jako Ian
  • Desmin Borges jako Wilson Wilson
  • Christopher Denham jako Arby
  • Javon 'Wanna' Walton jako Grant
  • Farrah Mackenzie jako Alice
  • Cory Michael Smith jako Thomas Christie
  • Jeanine Serralles jako Colleen
  • Rainn Wilson jako Michael Stearns
  • Sasha Lane jako Jessica Hyde
  • Bernard Gilbert jako Christie Minion #1
  • Hadley Robinson jako Lily
  • Jessica Rothe jako Samantha
  • Meg Warner jako National Anchor #4
  • Sonja Sohn jako Agent Katherine Milner
  • Fiona Dourif jako Cara
  • Crystal Fox jako Kim

Dane techniczne:
Kod: (Utopia (2020) S01E01) [Zaznacz]
General
Unique ID                                : 51147360932670147634559383991688627647 (0x267A9F971EC4E3BD46EC5252372C05BF)
Complete name                            : Utopia.2020.S01E01.Life.Begins.1080p.WEB-DL.DDP5.1.H.264.mkv
Format                                   : Matroska
Format version                           : Version 4
File size                                : 3.45 GiB
Duration                                 : 51 min 10 s
Overall bit rate                         : 9 664 kb/s
Frame rate                               : 23.976 FPS
Encoded date                             : 2023-09-02 23:38:44 UTC
Writing application                      : mkvmerge v77.0 ('Elemental') 64-bit
Writing library                          : libebml v1.4.4 + libmatroska v1.7.1

Video
ID                                       : 1
Format                                   : AVC
Format/Info                              : Advanced Video Codec
Format profile                           : High@L4
Format settings                          : CABAC / 4 Ref Frames
Format settings, CABAC                   : Yes
Format settings, Reference frames        : 4 frames
Codec ID                                 : V_MPEG4/ISO/AVC
Duration                                 : 50 min 23 s
Bit rate mode                            : Constant
Bit rate                                 : 8 516 kb/s
Nominal bit rate                         : 10 000 kb/s
Width                                    : 1 920 pixels
Height                                   : 800 pixels
Display aspect ratio                     : 2.40:1
Frame rate mode                          : Constant
Frame rate                               : 23.976 (24000/1001) FPS
Color space                              : YUV
Chroma subsampling                       : 4:2:0
Bit depth                                : 8 bits
Scan type                                : Progressive
Bits/(Pixel*Frame)                       : 0.231
Stream size                              : 3.00 GiB (87%)
Default                                  : Yes
Forced                                   : No
Color range                              : Limited
Color primaries                          : BT.709
Transfer characteristics                 : BT.709
Matrix coefficients                      : BT.709

Audio #1
ID                                       : 2
Format                                   : E-AC-3
Format/Info                              : Enhanced AC-3
Commercial name                          : Dolby Digital Plus
Codec ID                                 : A_EAC3
Duration                                 : 50 min 24 s
Bit rate mode                            : Constant
Bit rate                                 : 640 kb/s
Channel(s)                               : 6 channels
Channel layout                           : L R C LFE Ls Rs
Sampling rate                            : 48.0 kHz
Frame rate                               : 31.250 FPS (1536 SPF)
Compression mode                         : Lossy
Stream size                              : 231 MiB (7%)
Language                                 : English
Service kind                             : Complete Main
Default                                  : Yes
Forced                                   : No

Audio #2
ID                                       : 3
Format                                   : E-AC-3
Format/Info                              : Enhanced AC-3
Commercial name                          : Dolby Digital Plus
Codec ID                                 : A_EAC3
Duration                                 : 51 min 10 s
Bit rate mode                            : Constant
Bit rate                                 : 640 kb/s
Channel(s)                               : 6 channels
Channel layout                           : L R C LFE Ls Rs
Sampling rate                            : 48.0 kHz
Frame rate                               : 31.250 FPS (1536 SPF)
Compression mode                         : Lossy
Stream size                              : 234 MiB (7%)
Language                                 : Polish
Service kind                             : Complete Main
Default                                  : Yes
Forced                                   : No

Text #1
ID                                       : 4
Format                                   : UTF-8
Codec ID                                 : S_TEXT/UTF8
Codec ID/Info                            : UTF-8 Plain Text
Duration                                 : 48 min 59 s
Bit rate                                 : 65 b/s
Frame rate                               : 0.270 FPS
Count of elements                        : 795
Stream size                              : 23.6 KiB (0%)
Title                                    : SDH
Language                                 : English
Default                                  : No
Forced                                   : No

Text #2
ID                                       : 5
Format                                   : UTF-8
Codec ID                                 : S_TEXT/UTF8
Codec ID/Info                            : UTF-8 Plain Text
Duration                                 : 49 min 26 s
Bit rate                                 : 86 b/s
Frame rate                               : 0.195 FPS
Count of elements                        : 578
Stream size                              : 31.3 KiB (0%)
Language                                 : Arabic
Default                                  : No
Forced                                   : No

Text #3
ID                                       : 6
Format                                   : UTF-8
Codec ID                                 : S_TEXT/UTF8
Codec ID/Info                            : UTF-8 Plain Text
Duration                                 : 48 min 55 s
Bit rate                                 : 49 b/s
Frame rate                               : 0.195 FPS
Count of elements                        : 572
Stream size                              : 17.7 KiB (0%)
Language                                 : Danish
Default                                  : No
Forced                                   : No

Text #4
ID                                       : 7
Format                                   : UTF-8
Codec ID                                 : S_TEXT/UTF8
Codec ID/Info                            : UTF-8 Plain Text
Duration                                 : 48 min 54 s
Bit rate                                 : 48 b/s
Frame rate                               : 0.172 FPS
Count of elements                        : 506
Stream size                              : 17.3 KiB (0%)
Language                                 : German
Default                                  : No
Forced                                   : No

Text #5
ID                                       : 8
Format                                   : UTF-8
Codec ID                                 : S_TEXT/UTF8
Codec ID/Info                            : UTF-8 Plain Text
Duration                                 : 48 min 55 s
Bit rate                                 : 48 b/s
Frame rate                               : 0.196 FPS
Count of elements                        : 574
Stream size                              : 17.3 KiB (0%)
Title                                    : Latinoamérica
Language                                 : Spanish
Default                                  : No
Forced                                   : No

Text #6
ID                                       : 9
Format                                   : UTF-8
Codec ID                                 : S_TEXT/UTF8
Codec ID/Info                            : UTF-8 Plain Text
Duration                                 : 48 min 55 s
Bit rate                                 : 46 b/s
Frame rate                               : 0.194 FPS
Count of elements                        : 570
Stream size                              : 16.6 KiB (0%)
Title                                    : España
Language                                 : Spanish
Default                                  : No
Forced                                   : No

Text #7
ID                                       : 10
Format                                   : UTF-8
Codec ID                                 : S_TEXT/UTF8
Codec ID/Info                            : UTF-8 Plain Text
Duration                                 : 48 min 55 s
Bit rate                                 : 48 b/s
Frame rate                               : 0.195 FPS
Count of elements                        : 571
Stream size                              : 17.4 KiB (0%)
Language                                 : Finnish
Default                                  : No
Forced                                   : No

Text #8
ID                                       : 11
Format                                   : UTF-8
Codec ID                                 : S_TEXT/UTF8
Codec ID/Info                            : UTF-8 Plain Text
Duration                                 : 48 min 55 s
Bit rate                                 : 45 b/s
Frame rate                               : 0.181 FPS
Count of elements                        : 530
Stream size                              : 16.4 KiB (0%)
Language                                 : fil
Default                                  : No
Forced                                   : No

Text #9
ID                                       : 12
Format                                   : UTF-8
Codec ID                                 : S_TEXT/UTF8
Codec ID/Info                            : UTF-8 Plain Text
Duration                                 : 48 min 55 s
Bit rate                                 : 49 b/s
Frame rate                               : 0.193 FPS
Count of elements                        : 566
Stream size                              : 17.7 KiB (0%)
Language                                 : French
Default                                  : No
Forced                                   : No

Text #10
ID                                       : 13
Format                                   : UTF-8
Codec ID                                 : S_TEXT/UTF8
Codec ID/Info                            : UTF-8 Plain Text
Duration                                 : 49 min 26 s
Bit rate                                 : 72 b/s
Frame rate                               : 0.196 FPS
Count of elements                        : 581
Stream size                              : 26.3 KiB (0%)
Language                                 : Hebrew
Default                                  : No
Forced                                   : No

Text #11
ID                                       : 14
Format                                   : UTF-8
Codec ID                                 : S_TEXT/UTF8
Codec ID/Info                            : UTF-8 Plain Text
Duration                                 : 49 min 26 s
Bit rate                                 : 118 b/s
Frame rate                               : 0.196 FPS
Count of elements                        : 581
Stream size                              : 42.8 KiB (0%)
Language                                 : Hindi
Default                                  : No
Forced                                   : No

Text #12
ID                                       : 15
Format                                   : UTF-8
Codec ID                                 : S_TEXT/UTF8
Codec ID/Info                            : UTF-8 Plain Text
Duration                                 : 48 min 55 s
Bit rate                                 : 44 b/s
Frame rate                               : 0.195 FPS
Count of elements                        : 573
Stream size                              : 16.0 KiB (0%)
Language                                 : Indonesian
Default                                  : No
Forced                                   : No

Text #13
ID                                       : 16
Format                                   : UTF-8
Codec ID                                 : S_TEXT/UTF8
Codec ID/Info                            : UTF-8 Plain Text
Duration                                 : 48 min 55 s
Bit rate                                 : 48 b/s
Frame rate                               : 0.193 FPS
Count of elements                        : 568
Stream size                              : 17.2 KiB (0%)
Language                                 : Italian
Default                                  : No
Forced                                   : No

Text #14
ID                                       : 17
Format                                   : UTF-8
Codec ID                                 : S_TEXT/UTF8
Codec ID/Info                            : UTF-8 Plain Text
Duration                                 : 49 min 26 s
Bit rate                                 : 41 b/s
Frame rate                               : 0.185 FPS
Count of elements                        : 549
Stream size                              : 15.1 KiB (0%)
Language                                 : Japanese
Default                                  : No
Forced                                   : No

Text #15
ID                                       : 18
Format                                   : UTF-8
Codec ID                                 : S_TEXT/UTF8
Codec ID/Info                            : UTF-8 Plain Text
Duration                                 : 49 min 26 s
Bit rate                                 : 55 b/s
Frame rate                               : 0.196 FPS
Count of elements                        : 580
Stream size                              : 20.3 KiB (0%)
Language                                 : Korean
Default                                  : No
Forced                                   : No

Text #16
ID                                       : 19
Format                                   : UTF-8
Codec ID                                 : S_TEXT/UTF8
Codec ID/Info                            : UTF-8 Plain Text
Duration                                 : 48 min 55 s
Bit rate                                 : 49 b/s
Frame rate                               : 0.196 FPS
Count of elements                        : 574
Stream size                              : 17.6 KiB (0%)
Language                                 : Malay
Default                                  : No
Forced                                   : No

Text #17
ID                                       : 20
Format                                   : UTF-8
Codec ID                                 : S_TEXT/UTF8
Codec ID/Info                            : UTF-8 Plain Text
Duration                                 : 48 min 55 s
Bit rate                                 : 44 b/s
Frame rate                               : 0.194 FPS
Count of elements                        : 569
Stream size                              : 16.0 KiB (0%)
Language                                 : Norwegian Bokmal
Default                                  : No
Forced                                   : No

Text #18
ID                                       : 21
Format                                   : UTF-8
Codec ID                                 : S_TEXT/UTF8
Codec ID/Info                            : UTF-8 Plain Text
Duration                                 : 48 min 55 s
Bit rate                                 : 46 b/s
Frame rate                               : 0.193 FPS
Count of elements                        : 567
Stream size                              : 16.7 KiB (0%)
Language                                 : Dutch
Default                                  : No
Forced                                   : No

Text #19
ID                                       : 22
Format                                   : UTF-8
Codec ID                                 : S_TEXT/UTF8
Codec ID/Info                            : UTF-8 Plain Text
Duration                                 : 48 min 55 s
Bit rate                                 : 46 b/s
Frame rate                               : 0.195 FPS
Count of elements                        : 573
Stream size                              : 16.8 KiB (0%)
Language                                 : Polish
Default                                  : No
Forced                                   : No

Text #20
ID                                       : 23
Format                                   : UTF-8
Codec ID                                 : S_TEXT/UTF8
Codec ID/Info                            : UTF-8 Plain Text
Duration                                 : 48 min 55 s
Bit rate                                 : 47 b/s
Frame rate                               : 0.195 FPS
Count of elements                        : 571
Stream size                              : 17.1 KiB (0%)
Title                                    : Brasil
Language                                 : Portuguese
Default                                  : No
Forced                                   : No

Text #21
ID                                       : 24
Format                                   : UTF-8
Codec ID                                 : S_TEXT/UTF8
Codec ID/Info                            : UTF-8 Plain Text
Duration                                 : 48 min 55 s
Bit rate                                 : 49 b/s
Frame rate                               : 0.193 FPS
Count of elements                        : 567
Stream size                              : 17.7 KiB (0%)
Title                                    : Portugal
Language                                 : Portuguese
Default                                  : No
Forced                                   : No

Text #22
ID                                       : 25
Format                                   : UTF-8
Codec ID                                 : S_TEXT/UTF8
Codec ID/Info                            : UTF-8 Plain Text
Duration                                 : 49 min 26 s
Bit rate                                 : 79 b/s
Frame rate                               : 0.196 FPS
Count of elements                        : 582
Stream size                              : 28.7 KiB (0%)
Language                                 : Russian
Default                                  : No
Forced                                   : No

Text #23
ID                                       : 26
Format                                   : UTF-8
Codec ID                                 : S_TEXT/UTF8
Codec ID/Info                            : UTF-8 Plain Text
Duration                                 : 48 min 55 s
Bit rate                                 : 44 b/s
Frame rate                               : 0.194 FPS
Count of elements                        : 570
Stream size                              : 15.9 KiB (0%)
Language                                 : Swedish
Default                                  : No
Forced                                   : No

Text #24
ID                                       : 27
Format                                   : UTF-8
Codec ID                                 : S_TEXT/UTF8
Codec ID/Info                            : UTF-8 Plain Text
Duration                                 : 49 min 26 s
Bit rate                                 : 124 b/s
Frame rate                               : 0.196 FPS
Count of elements                        : 581
Stream size                              : 45.2 KiB (0%)
Language                                 : Tamil
Default                                  : No
Forced                                   : No

Text #25
ID                                       : 28
Format                                   : UTF-8
Codec ID                                 : S_TEXT/UTF8
Codec ID/Info                            : UTF-8 Plain Text
Duration                                 : 49 min 26 s
Bit rate                                 : 126 b/s
Frame rate                               : 0.196 FPS
Count of elements                        : 581
Stream size                              : 45.8 KiB (0%)
Language                                 : Telugu
Default                                  : No
Forced                                   : No

Text #26
ID                                       : 29
Format                                   : UTF-8
Codec ID                                 : S_TEXT/UTF8
Codec ID/Info                            : UTF-8 Plain Text
Duration                                 : 49 min 26 s
Bit rate                                 : 126 b/s
Frame rate                               : 0.196 FPS
Count of elements                        : 582
Stream size                              : 45.7 KiB (0%)
Language                                 : Thai
Default                                  : No
Forced                                   : No

Text #27
ID                                       : 30
Format                                   : UTF-8
Codec ID                                 : S_TEXT/UTF8
Codec ID/Info                            : UTF-8 Plain Text
Duration                                 : 49 min 26 s
Bit rate                                 : 48 b/s
Frame rate                               : 0.193 FPS
Count of elements                        : 574
Stream size                              : 17.4 KiB (0%)
Language                                 : Turkish
Default                                  : No
Forced                                   : No

Text #28
ID                                       : 31
Format                                   : UTF-8
Codec ID                                 : S_TEXT/UTF8
Codec ID/Info                            : UTF-8 Plain Text
Duration                                 : 49 min 26 s
Bit rate                                 : 48 b/s
Frame rate                               : 0.196 FPS
Count of elements                        : 581
Stream size                              : 17.5 KiB (0%)
Title                                    : 简体
Language                                 : Chinese
Default                                  : No
Forced                                   : No

Text #29
ID                                       : 32
Format                                   : UTF-8
Codec ID                                 : S_TEXT/UTF8
Codec ID/Info                            : UTF-8 Plain Text
Duration                                 : 49 min 26 s
Bit rate                                 : 45 b/s
Frame rate                               : 0.196 FPS
Count of elements                        : 581
Stream size                              : 16.5 KiB (0%)
Title                                    : 繁體
Language                                 : Chinese
Default                                  : No
Forced                                   : No

Menu
00:00:00.000                             : en:Amazon original
00:00:05.000                             : en:Disclaimer
00:00:13.000                             : en:Opening credits
00:01:02.000                             : en:Inheriting a house
00:03:17.000                             : en:Group text
00:05:55.000                             : en:Wilson's home life
00:08:42.000                             : en:Becky has a fit
00:09:44.000                             : en:Save the world girl
00:10:30.000                             : en:Grant's reality
00:11:14.000                             : en:Arrival at fringe-con
00:12:28.000                             : en:Utopia party
00:12:45.000                             : en:Seeing the manuscript
00:14:37.000                             : en:Waiting for a pick up
00:15:50.000                             : en:Interviewing bidders
00:17:08.000                             : en:Becky and ian view the manuscript
00:19:12.000                             : en:Ian meets becky
00:21:07.000                             : en:Competitive bidding
00:21:44.000                             : en:A good time at the bar
00:23:03.000                             : en:Time to start doing something
00:25:48.000                             : en:Feeling a connection
00:27:37.000                             : en:A large bid
00:28:24.000                             : en:Group meetup
00:29:41.000                             : en:Grant arrives
00:31:38.000                             : en:New guests
00:32:06.000                             : en:Finally meeting up
00:33:38.000                             : en:Unexpected visitors
00:37:42.000                             : en:In the penthouse
00:42:03.000                             : en:Seeking out witnesses
00:46:01.000                             : en:Bidding closes
00:46:37.000                             : en:Stay alive jessica hyde
00:48:35.000                             : en:End credits

Kod: (Utopia (2020) S01E04) [Zaznacz]
General
Unique ID                                : 245430290827124588076556458199820693141 (0xB8A427963FA8A5632CFF7FEDD1DA6E95)
Complete name                            : Utopia.2020.S01E04.not.slow.not.bad.1080p.WEB-DL.DDP5.1.H.264.mkv
Format                                   : Matroska
Format version                           : Version 4
File size                                : 2.93 GiB
Duration                                 : 48 min 21 s
Overall bit rate                         : 8 689 kb/s
Frame rate                               : 23.976 FPS
Encoded date                             : 2023-09-02 23:50:48 UTC
Writing application                      : mkvmerge v77.0 ('Elemental') 64-bit
Writing library                          : libebml v1.4.4 + libmatroska v1.7.1

Video
ID                                       : 1
Format                                   : AVC
Format/Info                              : Advanced Video Codec
Format profile                           : High@L4
Format settings                          : CABAC / 4 Ref Frames
Format settings, CABAC                   : Yes
Format settings, Reference frames        : 4 frames
Codec ID                                 : V_MPEG4/ISO/AVC
Duration                                 : 47 min 34 s
Bit rate mode                            : Constant
Bit rate                                 : 7 533 kb/s
Nominal bit rate                         : 10 000 kb/s
Width                                    : 1 920 pixels
Height                                   : 800 pixels
Display aspect ratio                     : 2.40:1
Frame rate mode                          : Constant
Frame rate                               : 23.976 (24000/1001) FPS
Color space                              : YUV
Chroma subsampling                       : 4:2:0
Bit depth                                : 8 bits
Scan type                                : Progressive
Bits/(Pixel*Frame)                       : 0.205
Stream size                              : 2.50 GiB (85%)
Default                                  : Yes
Forced                                   : No
Color range                              : Limited
Color primaries                          : BT.709
Transfer characteristics                 : BT.709
Matrix coefficients                      : BT.709

Audio #1
ID                                       : 2
Format                                   : E-AC-3
Format/Info                              : Enhanced AC-3
Commercial name                          : Dolby Digital Plus
Codec ID                                 : A_EAC3
Duration                                 : 47 min 35 s
Bit rate mode                            : Constant
Bit rate                                 : 640 kb/s
Channel(s)                               : 6 channels
Channel layout                           : L R C LFE Ls Rs
Sampling rate                            : 48.0 kHz
Frame rate                               : 31.250 FPS (1536 SPF)
Compression mode                         : Lossy
Stream size                              : 218 MiB (7%)
Language                                 : English
Service kind                             : Complete Main
Default                                  : Yes
Forced                                   : No

Audio #2
ID                                       : 3
Format                                   : E-AC-3
Format/Info                              : Enhanced AC-3
Commercial name                          : Dolby Digital Plus
Codec ID                                 : A_EAC3
Duration                                 : 48 min 21 s
Bit rate mode                            : Constant
Bit rate                                 : 640 kb/s
Channel(s)                               : 6 channels
Channel layout                           : L R C LFE Ls Rs
Sampling rate                            : 48.0 kHz
Frame rate                               : 31.250 FPS (1536 SPF)
Compression mode                         : Lossy
Stream size                              : 221 MiB (7%)
Language                                 : Polish
Service kind                             : Complete Main
Default                                  : Yes
Forced                                   : No

Text #1
ID                                       : 4
Format                                   : UTF-8
Codec ID                                 : S_TEXT/UTF8
Codec ID/Info                            : UTF-8 Plain Text
Duration                                 : 46 min 42 s
Bit rate                                 : 69 b/s
Frame rate                               : 0.280 FPS
Count of elements                        : 786
Stream size                              : 23.8 KiB (0%)
Title                                    : SDH
Language                                 : English
Default                                  : No
Forced                                   : No

Text #2
ID                                       : 5
Format                                   : UTF-8
Codec ID                                 : S_TEXT/UTF8
Codec ID/Info                            : UTF-8 Plain Text
Duration                                 : 46 min 48 s
Bit rate                                 : 92 b/s
Frame rate                               : 0.219 FPS
Count of elements                        : 614
Stream size                              : 31.9 KiB (0%)
Language                                 : Arabic
Default                                  : No
Forced                                   : No

Text #3
ID                                       : 6
Format                                   : UTF-8
Codec ID                                 : S_TEXT/UTF8
Codec ID/Info                            : UTF-8 Plain Text
Duration                                 : 46 min 48 s
Bit rate                                 : 55 b/s
Frame rate                               : 0.218 FPS
Count of elements                        : 611
Stream size                              : 19.0 KiB (0%)
Language                                 : Danish
Default                                  : No
Forced                                   : No

Text #4
ID                                       : 7
Format                                   : UTF-8
Codec ID                                 : S_TEXT/UTF8
Codec ID/Info                            : UTF-8 Plain Text
Duration                                 : 46 min 47 s
Bit rate                                 : 53 b/s
Frame rate                               : 0.176 FPS
Count of elements                        : 493
Stream size                              : 18.4 KiB (0%)
Language                                 : German
Default                                  : No
Forced                                   : No

Text #5
ID                                       : 8
Format                                   : UTF-8
Codec ID                                 : S_TEXT/UTF8
Codec ID/Info                            : UTF-8 Plain Text
Duration                                 : 46 min 48 s
Bit rate                                 : 56 b/s
Frame rate                               : 0.218 FPS
Count of elements                        : 613
Stream size                              : 19.2 KiB (0%)
Title                                    : Latinoamérica
Language                                 : Spanish
Default                                  : No
Forced                                   : No

Text #6
ID                                       : 9
Format                                   : UTF-8
Codec ID                                 : S_TEXT/UTF8
Codec ID/Info                            : UTF-8 Plain Text
Duration                                 : 46 min 48 s
Bit rate                                 : 51 b/s
Frame rate                               : 0.217 FPS
Count of elements                        : 609
Stream size                              : 17.8 KiB (0%)
Title                                    : España
Language                                 : Spanish
Default                                  : No
Forced                                   : No

Text #7
ID                                       : 10
Format                                   : UTF-8
Codec ID                                 : S_TEXT/UTF8
Codec ID/Info                            : UTF-8 Plain Text
Duration                                 : 46 min 48 s
Bit rate                                 : 55 b/s
Frame rate                               : 0.218 FPS
Count of elements                        : 611
Stream size                              : 19.1 KiB (0%)
Language                                 : Finnish
Default                                  : No
Forced                                   : No

Text #8
ID                                       : 11
Format                                   : UTF-8
Codec ID                                 : S_TEXT/UTF8
Codec ID/Info                            : UTF-8 Plain Text
Duration                                 : 46 min 48 s
Bit rate                                 : 52 b/s
Frame rate                               : 0.210 FPS
Count of elements                        : 589
Stream size                              : 17.9 KiB (0%)
Language                                 : fil
Default                                  : No
Forced                                   : No

Text #9
ID                                       : 12
Format                                   : UTF-8
Codec ID                                 : S_TEXT/UTF8
Codec ID/Info                            : UTF-8 Plain Text
Duration                                 : 46 min 48 s
Bit rate                                 : 57 b/s
Frame rate                               : 0.217 FPS
Count of elements                        : 610
Stream size                              : 19.8 KiB (0%)
Language                                 : French
Default                                  : No
Forced                                   : No

Text #10
ID                                       : 13
Format                                   : UTF-8
Codec ID                                 : S_TEXT/UTF8
Codec ID/Info                            : UTF-8 Plain Text
Duration                                 : 46 min 48 s
Bit rate                                 : 86 b/s
Frame rate                               : 0.219 FPS
Count of elements                        : 616
Stream size                              : 29.5 KiB (0%)
Language                                 : Hebrew
Default                                  : No
Forced                                   : No

Text #11
ID                                       : 14
Format                                   : UTF-8
Codec ID                                 : S_TEXT/UTF8
Codec ID/Info                            : UTF-8 Plain Text
Duration                                 : 46 min 48 s
Bit rate                                 : 138 b/s
Frame rate                               : 0.219 FPS
Count of elements                        : 616
Stream size                              : 47.4 KiB (0%)
Language                                 : Hindi
Default                                  : No
Forced                                   : No

Text #12
ID                                       : 15
Format                                   : UTF-8
Codec ID                                 : S_TEXT/UTF8
Codec ID/Info                            : UTF-8 Plain Text
Duration                                 : 46 min 48 s
Bit rate                                 : 51 b/s
Frame rate                               : 0.218 FPS
Count of elements                        : 613
Stream size                              : 17.8 KiB (0%)
Language                                 : Indonesian
Default                                  : No
Forced                                   : No

Text #13
ID                                       : 16
Format                                   : UTF-8
Codec ID                                 : S_TEXT/UTF8
Codec ID/Info                            : UTF-8 Plain Text
Duration                                 : 46 min 48 s
Bit rate                                 : 53 b/s
Frame rate                               : 0.217 FPS
Count of elements                        : 610
Stream size                              : 18.4 KiB (0%)
Language                                 : Italian
Default                                  : No
Forced                                   : No

Text #14
ID                                       : 17
Format                                   : UTF-8
Codec ID                                 : S_TEXT/UTF8
Codec ID/Info                            : UTF-8 Plain Text
Duration                                 : 46 min 49 s
Bit rate                                 : 45 b/s
Frame rate                               : 0.198 FPS
Count of elements                        : 555
Stream size                              : 15.5 KiB (0%)
Language                                 : Japanese
Default                                  : No
Forced                                   : No

Text #15
ID                                       : 18
Format                                   : UTF-8
Codec ID                                 : S_TEXT/UTF8
Codec ID/Info                            : UTF-8 Plain Text
Duration                                 : 46 min 48 s
Bit rate                                 : 65 b/s
Frame rate                               : 0.219 FPS
Count of elements                        : 616
Stream size                              : 22.3 KiB (0%)
Language                                 : Korean
Default                                  : No
Forced                                   : No

Text #16
ID                                       : 19
Format                                   : UTF-8
Codec ID                                 : S_TEXT/UTF8
Codec ID/Info                            : UTF-8 Plain Text
Duration                                 : 46 min 48 s
Bit rate                                 : 57 b/s
Frame rate                               : 0.218 FPS
Count of elements                        : 611
Stream size                              : 19.6 KiB (0%)
Language                                 : Malay
Default                                  : No
Forced                                   : No

Text #17
ID                                       : 20
Format                                   : UTF-8
Codec ID                                 : S_TEXT/UTF8
Codec ID/Info                            : UTF-8 Plain Text
Duration                                 : 46 min 48 s
Bit rate                                 : 52 b/s
Frame rate                               : 0.218 FPS
Count of elements                        : 611
Stream size                              : 17.9 KiB (0%)
Language                                 : Norwegian Bokmal
Default                                  : No
Forced                                   : No

Text #18
ID                                       : 21
Format                                   : UTF-8
Codec ID                                 : S_TEXT/UTF8
Codec ID/Info                            : UTF-8 Plain Text
Duration                                 : 46 min 48 s
Bit rate                                 : 47 b/s
Frame rate                               : 0.218 FPS
Count of elements                        : 611
Stream size                              : 16.3 KiB (0%)
Language                                 : Dutch
Default                                  : No
Forced                                   : No

Text #19
ID                                       : 22
Format                                   : UTF-8
Codec ID                                 : S_TEXT/UTF8
Codec ID/Info                            : UTF-8 Plain Text
Duration                                 : 46 min 48 s
Bit rate                                 : 54 b/s
Frame rate                               : 0.218 FPS
Count of elements                        : 613
Stream size                              : 18.6 KiB (0%)
Language                                 : Polish
Default                                  : No
Forced                                   : No

Text #20
ID                                       : 23
Format                                   : UTF-8
Codec ID                                 : S_TEXT/UTF8
Codec ID/Info                            : UTF-8 Plain Text
Duration                                 : 46 min 48 s
Bit rate                                 : 54 b/s
Frame rate                               : 0.218 FPS
Count of elements                        : 613
Stream size                              : 18.6 KiB (0%)
Title                                    : Brasil
Language                                 : Portuguese
Default                                  : No
Forced                                   : No

Text #21
ID                                       : 24
Format                                   : UTF-8
Codec ID                                 : S_TEXT/UTF8
Codec ID/Info                            : UTF-8 Plain Text
Duration                                 : 46 min 48 s
Bit rate                                 : 56 b/s
Frame rate                               : 0.217 FPS
Count of elements                        : 610
Stream size                              : 19.3 KiB (0%)
Title                                    : Portugal
Language                                 : Portuguese
Default                                  : No
Forced                                   : No

Text #22
ID                                       : 25
Format                                   : UTF-8
Codec ID                                 : S_TEXT/UTF8
Codec ID/Info                            : UTF-8 Plain Text
Duration                                 : 46 min 48 s
Bit rate                                 : 89 b/s
Frame rate                               : 0.219 FPS
Count of elements                        : 616
Stream size                              : 30.6 KiB (0%)
Language                                 : Russian
Default                                  : No
Forced                                   : No

Text #23
ID                                       : 26
Format                                   : UTF-8
Codec ID                                 : S_TEXT/UTF8
Codec ID/Info                            : UTF-8 Plain Text
Duration                                 : 46 min 48 s
Bit rate                                 : 51 b/s
Frame rate                               : 0.217 FPS
Count of elements                        : 610
Stream size                              : 17.5 KiB (0%)
Language                                 : Swedish
Default                                  : No
Forced                                   : No

Text #24
ID                                       : 27
Format                                   : UTF-8
Codec ID                                 : S_TEXT/UTF8
Codec ID/Info                            : UTF-8 Plain Text
Duration                                 : 46 min 48 s
Bit rate                                 : 142 b/s
Frame rate                               : 0.219 FPS
Count of elements                        : 616
Stream size                              : 48.9 KiB (0%)
Language                                 : Tamil
Default                                  : No
Forced                                   : No

Text #25
ID                                       : 28
Format                                   : UTF-8
Codec ID                                 : S_TEXT/UTF8
Codec ID/Info                            : UTF-8 Plain Text
Duration                                 : 46 min 48 s
Bit rate                                 : 145 b/s
Frame rate                               : 0.219 FPS
Count of elements                        : 616
Stream size                              : 49.9 KiB (0%)
Language                                 : Telugu
Default                                  : No
Forced                                   : No

Text #26
ID                                       : 29
Format                                   : UTF-8
Codec ID                                 : S_TEXT/UTF8
Codec ID/Info                            : UTF-8 Plain Text
Duration                                 : 46 min 48 s
Bit rate                                 : 143 b/s
Frame rate                               : 0.219 FPS
Count of elements                        : 615
Stream size                              : 49.1 KiB (0%)
Language                                 : Thai
Default                                  : No
Forced                                   : No

Text #27
ID                                       : 30
Format                                   : UTF-8
Codec ID                                 : S_TEXT/UTF8
Codec ID/Info                            : UTF-8 Plain Text
Duration                                 : 46 min 48 s
Bit rate                                 : 56 b/s
Frame rate                               : 0.219 FPS
Count of elements                        : 615
Stream size                              : 19.2 KiB (0%)
Language                                 : Turkish
Default                                  : No
Forced                                   : No

Text #28
ID                                       : 31
Format                                   : UTF-8
Codec ID                                 : S_TEXT/UTF8
Codec ID/Info                            : UTF-8 Plain Text
Duration                                 : 46 min 48 s
Bit rate                                 : 56 b/s
Frame rate                               : 0.219 FPS
Count of elements                        : 616
Stream size                              : 19.2 KiB (0%)
Title                                    : 简体
Language                                 : Chinese
Default                                  : No
Forced                                   : No

Text #29
ID                                       : 32
Format                                   : UTF-8
Codec ID                                 : S_TEXT/UTF8
Codec ID/Info                            : UTF-8 Plain Text
Duration                                 : 46 min 48 s
Bit rate                                 : 52 b/s
Frame rate                               : 0.219 FPS
Count of elements                        : 616
Stream size                              : 17.8 KiB (0%)
Title                                    : 繁體
Language                                 : Chinese
Default                                  : No
Forced                                   : No

Menu
00:00:00.000                             : en:Amazon original
00:00:05.000                             : en:Disclaimer
00:00:13.000                             : en:Digging a grave
00:01:32.000                             : en:Opening credits
00:02:20.000                             : en:Being human
00:06:36.000                             : en:A troubling update
00:07:19.000                             : en:Making new friends
00:09:08.000                             : en:A tense meeting
00:14:58.000                             : en:Looking at utopia
00:21:54.000                             : en:Cara brings her concerns to dr. christie
00:24:12.000                             : en:Back in the hot zone
00:25:44.000                             : en:Splitting up
00:27:36.000                             : en:A meeting with agent milner
00:33:48.000                             : en:A new helper
00:35:00.000                             : en:Returning to the group
00:35:46.000                             : en:Pep talk
00:36:51.000                             : en:The truth about utopia
00:38:33.000                             : en:Medical clearance
00:40:36.000                             : en:A shocking revelation
00:41:42.000                             : en:The final mission
00:45:51.000                             : en:End credits

Kod: (Utopia (2020) S01E08) [Zaznacz]
General
Unique ID                                : 216812166665478696821474384901140659889 (0xA31C8120F043CBCED23CBBB1BC003EB1)
Complete name                            : Utopia.2020.S01E08.Stay.Alive.Jessica.Hyde.1080p.WEB-DL.DDP5.1.H.264.mkv
Format                                   : Matroska
Format version                           : Version 4
File size                                : 3.81 GiB
Duration                                 : 55 min 45 s
Overall bit rate                         : 9 794 kb/s
Frame rate                               : 23.976 FPS
Encoded date                             : 2023-09-02 23:58:45 UTC
Writing application                      : mkvmerge v77.0 ('Elemental') 64-bit
Writing library                          : libebml v1.4.4 + libmatroska v1.7.1

Video
ID                                       : 1
Format                                   : AVC
Format/Info                              : Advanced Video Codec
Format profile                           : High@L4
Format settings                          : CABAC / 4 Ref Frames
Format settings, CABAC                   : Yes
Format settings, Reference frames        : 4 frames
Codec ID                                 : V_MPEG4/ISO/AVC
Duration                                 : 54 min 59 s
Bit rate mode                            : Constant
Bit rate                                 : 8 636 kb/s
Nominal bit rate                         : 10 000 kb/s
Width                                    : 1 920 pixels
Height                                   : 800 pixels
Display aspect ratio                     : 2.40:1
Frame rate mode                          : Constant
Frame rate                               : 23.976 (24000/1001) FPS
Color space                              : YUV
Chroma subsampling                       : 4:2:0
Bit depth                                : 8 bits
Scan type                                : Progressive
Bits/(Pixel*Frame)                       : 0.235
Stream size                              : 3.32 GiB (87%)
Default                                  : Yes
Forced                                   : No
Color range                              : Limited
Color primaries                          : BT.709
Transfer characteristics                 : BT.709
Matrix coefficients                      : BT.709

Audio #1
ID                                       : 2
Format                                   : E-AC-3
Format/Info                              : Enhanced AC-3
Commercial name                          : Dolby Digital Plus
Codec ID                                 : A_EAC3
Duration                                 : 54 min 59 s
Bit rate mode                            : Constant
Bit rate                                 : 640 kb/s
Channel(s)                               : 6 channels
Channel layout                           : L R C LFE Ls Rs
Sampling rate                            : 48.0 kHz
Frame rate                               : 31.250 FPS (1536 SPF)
Compression mode                         : Lossy
Stream size                              : 252 MiB (6%)
Language                                 : English
Service kind                             : Complete Main
Default                                  : Yes
Forced                                   : No

Audio #2
ID                                       : 3
Format                                   : E-AC-3
Format/Info                              : Enhanced AC-3
Commercial name                          : Dolby Digital Plus
Codec ID                                 : A_EAC3
Duration                                 : 55 min 45 s
Bit rate mode                            : Constant
Bit rate                                 : 640 kb/s
Channel(s)                               : 6 channels
Channel layout                           : L R C LFE Ls Rs
Sampling rate                            : 48.0 kHz
Frame rate                               : 31.250 FPS (1536 SPF)
Compression mode                         : Lossy
Stream size                              : 255 MiB (7%)
Language                                 : Polish
Service kind                             : Complete Main
Default                                  : Yes
Forced                                   : No

Text #1
ID                                       : 4
Format                                   : UTF-8
Codec ID                                 : S_TEXT/UTF8
Codec ID/Info                            : UTF-8 Plain Text
Duration                                 : 53 min 59 s
Bit rate                                 : 61 b/s
Frame rate                               : 0.255 FPS
Count of elements                        : 825
Stream size                              : 24.3 KiB (0%)
Title                                    : SDH
Language                                 : English
Default                                  : No
Forced                                   : No

Text #2
ID                                       : 5
Format                                   : UTF-8
Codec ID                                 : S_TEXT/UTF8
Codec ID/Info                            : UTF-8 Plain Text
Duration                                 : 54 min 2 s
Bit rate                                 : 74 b/s
Frame rate                               : 0.175 FPS
Count of elements                        : 568
Stream size                              : 29.5 KiB (0%)
Language                                 : Arabic
Default                                  : No
Forced                                   : No

Text #3
ID                                       : 6
Format                                   : UTF-8
Codec ID                                 : S_TEXT/UTF8
Codec ID/Info                            : UTF-8 Plain Text
Duration                                 : 53 min 45 s
Bit rate                                 : 45 b/s
Frame rate                               : 0.175 FPS
Count of elements                        : 563
Stream size                              : 17.8 KiB (0%)
Language                                 : Danish
Default                                  : No
Forced                                   : No

Text #4
ID                                       : 7
Format                                   : UTF-8
Codec ID                                 : S_TEXT/UTF8
Codec ID/Info                            : UTF-8 Plain Text
Duration                                 : 53 min 42 s
Bit rate                                 : 44 b/s
Frame rate                               : 0.145 FPS
Count of elements                        : 468
Stream size                              : 17.5 KiB (0%)
Language                                 : German
Default                                  : No
Forced                                   : No

Text #5
ID                                       : 8
Format                                   : UTF-8
Codec ID                                 : S_TEXT/UTF8
Codec ID/Info                            : UTF-8 Plain Text
Duration                                 : 53 min 45 s
Bit rate                                 : 44 b/s
Frame rate                               : 0.175 FPS
Count of elements                        : 563
Stream size                              : 17.6 KiB (0%)
Title                                    : Latinoamérica
Language                                 : Spanish
Default                                  : No
Forced                                   : No

Text #6
ID                                       : 9
Format                                   : UTF-8
Codec ID                                 : S_TEXT/UTF8
Codec ID/Info                            : UTF-8 Plain Text
Duration                                 : 53 min 45 s
Bit rate                                 : 44 b/s
Frame rate                               : 0.175 FPS
Count of elements                        : 564
Stream size                              : 17.5 KiB (0%)
Title                                    : España
Language                                 : Spanish
Default                                  : No
Forced                                   : No

Text #7
ID                                       : 10
Format                                   : UTF-8
Codec ID                                 : S_TEXT/UTF8
Codec ID/Info                            : UTF-8 Plain Text
Duration                                 : 53 min 45 s
Bit rate                                 : 45 b/s
Frame rate                               : 0.175 FPS
Count of elements                        : 565
Stream size                              : 18.1 KiB (0%)
Language                                 : Finnish
Default                                  : No
Forced                                   : No

Text #8
ID                                       : 11
Format                                   : UTF-8
Codec ID                                 : S_TEXT/UTF8
Codec ID/Info                            : UTF-8 Plain Text
Duration                                 : 53 min 45 s
Bit rate                                 : 43 b/s
Frame rate                               : 0.172 FPS
Count of elements                        : 556
Stream size                              : 17.2 KiB (0%)
Language                                 : fil
Default                                  : No
Forced                                   : No

Text #9
ID                                       : 12
Format                                   : UTF-8
Codec ID                                 : S_TEXT/UTF8
Codec ID/Info                            : UTF-8 Plain Text
Duration                                 : 53 min 45 s
Bit rate                                 : 46 b/s
Frame rate                               : 0.175 FPS
Count of elements                        : 565
Stream size                              : 18.2 KiB (0%)
Language                                 : French
Default                                  : No
Forced                                   : No

Text #10
ID                                       : 13
Format                                   : UTF-8
Codec ID                                 : S_TEXT/UTF8
Codec ID/Info                            : UTF-8 Plain Text
Duration                                 : 54 min 2 s
Bit rate                                 : 70 b/s
Frame rate                               : 0.175 FPS
Count of elements                        : 568
Stream size                              : 27.7 KiB (0%)
Language                                 : Hebrew
Default                                  : No
Forced                                   : No

Text #11
ID                                       : 14
Format                                   : UTF-8
Codec ID                                 : S_TEXT/UTF8
Codec ID/Info                            : UTF-8 Plain Text
Duration                                 : 54 min 1 s
Bit rate                                 : 110 b/s
Frame rate                               : 0.177 FPS
Count of elements                        : 573
Stream size                              : 43.9 KiB (0%)
Language                                 : Hindi
Default                                  : No
Forced                                   : No

Text #12
ID                                       : 15
Format                                   : UTF-8
Codec ID                                 : S_TEXT/UTF8
Codec ID/Info                            : UTF-8 Plain Text
Duration                                 : 53 min 45 s
Bit rate                                 : 42 b/s
Frame rate                               : 0.175 FPS
Count of elements                        : 565
Stream size                              : 16.9 KiB (0%)
Language                                 : Indonesian
Default                                  : No
Forced                                   : No

Text #13
ID                                       : 16
Format                                   : UTF-8
Codec ID                                 : S_TEXT/UTF8
Codec ID/Info                            : UTF-8 Plain Text
Duration                                 : 53 min 45 s
Bit rate                                 : 44 b/s
Frame rate                               : 0.175 FPS
Count of elements                        : 564
Stream size                              : 17.7 KiB (0%)
Language                                 : Italian
Default                                  : No
Forced                                   : No

Text #14
ID                                       : 17
Format                                   : UTF-8
Codec ID                                 : S_TEXT/UTF8
Codec ID/Info                            : UTF-8 Plain Text
Duration                                 : 54 min 1 s
Bit rate                                 : 36 b/s
Frame rate                               : 0.164 FPS
Count of elements                        : 533
Stream size                              : 14.6 KiB (0%)
Language                                 : Japanese
Default                                  : No
Forced                                   : No

Text #15
ID                                       : 18
Format                                   : UTF-8
Codec ID                                 : S_TEXT/UTF8
Codec ID/Info                            : UTF-8 Plain Text
Duration                                 : 54 min 2 s
Bit rate                                 : 55 b/s
Frame rate                               : 0.177 FPS
Count of elements                        : 573
Stream size                              : 22.0 KiB (0%)
Language                                 : Korean
Default                                  : No
Forced                                   : No

Text #16
ID                                       : 19
Format                                   : UTF-8
Codec ID                                 : S_TEXT/UTF8
Codec ID/Info                            : UTF-8 Plain Text
Duration                                 : 53 min 45 s
Bit rate                                 : 44 b/s
Frame rate                               : 0.175 FPS
Count of elements                        : 563
Stream size                              : 17.4 KiB (0%)
Language                                 : Malay
Default                                  : No
Forced                                   : No

Text #17
ID                                       : 20
Format                                   : UTF-8
Codec ID                                 : S_TEXT/UTF8
Codec ID/Info                            : UTF-8 Plain Text
Duration                                 : 53 min 45 s
Bit rate                                 : 41 b/s
Frame rate                               : 0.175 FPS
Count of elements                        : 564
Stream size                              : 16.4 KiB (0%)
Language                                 : Norwegian Bokmal
Default                                  : No
Forced                                   : No

Text #18
ID                                       : 21
Format                                   : UTF-8
Codec ID                                 : S_TEXT/UTF8
Codec ID/Info                            : UTF-8 Plain Text
Duration                                 : 53 min 35 s
Bit rate                                 : 41 b/s
Frame rate                               : 0.175 FPS
Count of elements                        : 562
Stream size                              : 16.1 KiB (0%)
Language                                 : Dutch
Default                                  : No
Forced                                   : No

Text #19
ID                                       : 22
Format                                   : UTF-8
Codec ID                                 : S_TEXT/UTF8
Codec ID/Info                            : UTF-8 Plain Text
Duration                                 : 53 min 45 s
Bit rate                                 : 44 b/s
Frame rate                               : 0.175 FPS
Count of elements                        : 564
Stream size                              : 17.6 KiB (0%)
Language                                 : Polish
Default                                  : No
Forced                                   : No

Text #20
ID                                       : 23
Format                                   : UTF-8
Codec ID                                 : S_TEXT/UTF8
Codec ID/Info                            : UTF-8 Plain Text
Duration                                 : 53 min 35 s
Bit rate                                 : 44 b/s
Frame rate                               : 0.175 FPS
Count of elements                        : 563
Stream size                              : 17.5 KiB (0%)
Title                                    : Brasil
Language                                 : Portuguese
Default                                  : No
Forced                                   : No

Text #21
ID                                       : 24
Format                                   : UTF-8
Codec ID                                 : S_TEXT/UTF8
Codec ID/Info                            : UTF-8 Plain Text
Duration                                 : 53 min 45 s
Bit rate                                 : 46 b/s
Frame rate                               : 0.175 FPS
Count of elements                        : 563
Stream size                              : 18.2 KiB (0%)
Title                                    : Portugal
Language                                 : Portuguese
Default                                  : No
Forced                                   : No

Text #22
ID                                       : 25
Format                                   : UTF-8
Codec ID                                 : S_TEXT/UTF8
Codec ID/Info                            : UTF-8 Plain Text
Duration                                 : 54 min 2 s
Bit rate                                 : 73 b/s
Frame rate                               : 0.177 FPS
Count of elements                        : 574
Stream size                              : 29.2 KiB (0%)
Language                                 : Russian
Default                                  : No
Forced                                   : No

Text #23
ID                                       : 26
Format                                   : UTF-8
Codec ID                                 : S_TEXT/UTF8
Codec ID/Info                            : UTF-8 Plain Text
Duration                                 : 53 min 45 s
Bit rate                                 : 42 b/s
Frame rate                               : 0.174 FPS
Count of elements                        : 560
Stream size                              : 16.7 KiB (0%)
Language                                 : Swedish
Default                                  : No
Forced                                   : No

Text #24
ID                                       : 27
Format                                   : UTF-8
Codec ID                                 : S_TEXT/UTF8
Codec ID/Info                            : UTF-8 Plain Text
Duration                                 : 54 min 2 s
Bit rate                                 : 113 b/s
Frame rate                               : 0.176 FPS
Count of elements                        : 569
Stream size                              : 44.8 KiB (0%)
Language                                 : Tamil
Default                                  : No
Forced                                   : No

Text #25
ID                                       : 28
Format                                   : UTF-8
Codec ID                                 : S_TEXT/UTF8
Codec ID/Info                            : UTF-8 Plain Text
Duration                                 : 54 min 2 s
Bit rate                                 : 118 b/s
Frame rate                               : 0.176 FPS
Count of elements                        : 570
Stream size                              : 47.0 KiB (0%)
Language                                 : Telugu
Default                                  : No
Forced                                   : No

Text #26
ID                                       : 29
Format                                   : UTF-8
Codec ID                                 : S_TEXT/UTF8
Codec ID/Info                            : UTF-8 Plain Text
Duration                                 : 54 min 2 s
Bit rate                                 : 113 b/s
Frame rate                               : 0.176 FPS
Count of elements                        : 569
Stream size                              : 45.0 KiB (0%)
Language                                 : Thai
Default                                  : No
Forced                                   : No

Text #27
ID                                       : 30
Format                                   : UTF-8
Codec ID                                 : S_TEXT/UTF8
Codec ID/Info                            : UTF-8 Plain Text
Duration                                 : 54 min 2 s
Bit rate                                 : 44 b/s
Frame rate                               : 0.175 FPS
Count of elements                        : 567
Stream size                              : 17.8 KiB (0%)
Language                                 : Turkish
Default                                  : No
Forced                                   : No

Text #28
ID                                       : 31
Format                                   : UTF-8
Codec ID                                 : S_TEXT/UTF8
Codec ID/Info                            : UTF-8 Plain Text
Duration                                 : 54 min 2 s
Bit rate                                 : 43 b/s
Frame rate                               : 0.175 FPS
Count of elements                        : 568
Stream size                              : 17.1 KiB (0%)
Title                                    : 简体
Language                                 : Chinese
Default                                  : No
Forced                                   : No

Text #29
ID                                       : 32
Format                                   : UTF-8
Codec ID                                 : S_TEXT/UTF8
Codec ID/Info                            : UTF-8 Plain Text
Duration                                 : 54 min 2 s
Bit rate                                 : 40 b/s
Frame rate                               : 0.175 FPS
Count of elements                        : 567
Stream size                              : 16.1 KiB (0%)
Title                                    : 繁體
Language                                 : Chinese
Default                                  : No
Forced                                   : No

Menu
00:00:00.000                             : en:Amazon original
00:00:05.000                             : en:Disclaimer
00:00:12.000                             : en:Opening credits
00:01:01.000                             : en:The proof
00:08:28.000                             : en:What happens next
00:18:33.000                             : en:Making a plan
00:22:03.000                             : en:Saying goodbye
00:23:42.000                             : en:Stay alive jessica hyde
00:25:25.000                             : en:Breaking in to the labs
00:29:20.000                             : en:The greater good
00:33:33.000                             : en:Destroying the vaccine
00:39:40.000                             : en:Almost home
00:40:22.000                             : en:A turn of events
00:41:41.000                             : en:Children awaiting their purpose
00:43:00.000                             : en:An unexpected rescue
00:44:17.000                             : en:Walking around home
00:44:34.000                             : en:Alone
00:45:11.000                             : en:A new plan
00:45:33.000                             : en:Returning home
00:53:26.000                             : en:End credits


Podgląd:

Download:
Przepraszamy, ale nie możesz zobaczyć ukrytej zawartości. Musisz się zalogować, aby zobaczyć tę zawartość.

Przepraszamy, ale nie możesz zobaczyć ukrytej zawartości. Musisz się zalogować, aby zobaczyć tę zawartość.

Nie masz uprawnień do przeglądania linków. Zarejestruj lub Zaloguj
Pierwszy post: Utopia (2020) [26 GiB] [M/LP/DA/NPAM] [AVC 8 636 kb/s - 10 000 kb/s] [E-AC-3 640 kb/s]

« Ostatnia zmiana: 17 Wrzesień 2023, 02:58:06 wysłana przez TryHackX »