Shrek Tetralogia / Shrek Tetralogy (2001 - 2010) [28.67 GiB] [DP] [AVC 10.5 Mb/s] [AC-3 640 kb/s]
TryHackX - Forum

Shrek Tetralogia / Shrek Tetralogy (2001 - 2010) [28.67 GiB] [DP] [AVC 10.5 Mb/s] [AC-3 640 kb/s]

Offline TryHackX

  • Administrator
  • Aktywny użytkownik
  • *****
    • Wiadomości: 170
    • Reputacja +0/-0
    • Zobacz profil
Shrek Tetralogia / Shrek Tetralogy (2001 - 2010) [28.67 GiB] [DP] [AVC 10.5 Mb/s] [AC-3 640 kb/s]

Szybki podgląd:
Tytuł: Shrek Tetralogia / Shrek Tetralogy
Rok premiery: 2001 - 2010, Kategoria wiekowa: 12
Rozmiar: 28.67 GiB, Czas trwania: 1 h 30 min, Typ wydania: Bluray
Informacje językowe: Dubbing Polski
Przepraszamy, ale nie możesz zobaczyć ukrytej zawartości. Musisz się zalogować, aby zobaczyć tę zawartość.




Shrek (2001) [7,01 GB] [DP] [AVC 10.5 Mb/s] [AC-3 640 kb/s]

Szybki podgląd:
Polski tytuł: Shrek
Rok premiery: 2001, Kategoria wiekowa: 12
Rozmiar: 7,01 GB, Czas trwania: 1 h 30 min, Typ wydania: Bluray
Informacje językowe: Dubbing Polski

Writing library: x264 core 146 r2538 121396c, libebml v1.3.1 + libmatroska v1.4.2
Writing application: mkvmerge v7.7.0 [32bit] built on Feb 28 2015 23:23:00, Format: Matroska, Version: Version 2
Video: #1, Format: AVC, Codec ID: V_MPEG4/ISO/AVC, Bit rate: 10.5 Mb/s, Frame rate: 23.976 (24000/1001) FPS
Width: 1 920 pixels, Height: 1 080 pixels, Display aspect ratio: 16:9, Bit depth: 8 bits, Stream size: 6.61 GiB (94%)

Audio: #1, Format: AC-3, Codec ID: A_AC3, Bit rate: 640 kb/s, Sampling rate: 48.0 kHz
Commercial name: Dolby Digital, Language: Polish, Channel(s): 6 channels, Channel layout: L R C LFE Ls Rs, Stream size: 413 MiB (6%)

Informacje:
Tytuł: Shrek
Ocena: IMDB - 7.9/10 (708K), Filmweb - 7,8/10 (829 187)
Nagrody: Won 1 Oscar, 40 wins & 60 nominations total
Reżyseria: Andrew Adamson, Vicky Jenson
Scenariusz: Joe Stillman, Roger S.H. Schulman
Gatunek: Animacja, Familijny, Komedia
Premiera: 13 lipca 2001 (Polska), 22 kwietnia 2001 (Świat)
Boxoffice: $488 351 320 na świecie, $268 163 011 w USA, $220 188 309 poza USA
Studio: DreamWorks Animation  /  DreamWorks SKG  /  Pacific Data Images (PDI) / więcej
Budżet: $60 000 000
Na podstawie: Chris Miller  (dialogi)

Opis:
By odzyskać swój dom, brzydki ogr z gadatliwym osłem wyruszają uwolnić piękną księżniczkę.

Większy opis:
W bagnie żył olbrzym Shrek, którego cenna samotność została nagle zakłócona inwazją dokuczliwych postaci z bajek. Ślepe myszki buszują w zapasach olbrzyma, zły wilk sypia w jego łóżku, a trzy świnki buszują po jego samotni. Wszystkie te postaci zostały wypędzone ze swego królestwa przez złego Lorda Farquaada. Zdecydowany ocalić ich dom - nie mówiąc już o swoim - Shrek porozumiewa się z Farquaadem i wyrusza na ratunek pięknej księżniczce Fionie, która ma zostać żoną Lorda. W misji towarzyszy mu przemądrzały Osioł, który zrobi dla Shreka wszystko z wyjątkiem... przestania mielenia ozorem. Ocalenie księżniczki przed ziejącym ogniem smokiem okazuje się być najmniejszym problemem przyjaciół, kiedy to zostaje odkryty głęboko skrywany, mroczny sekret Fiony.

Etykieta:


Obsada:
  • Mike Myers jako Shrek (voice), …
  • Eddie Murphy jako Donkey (voice)
  • Cameron Diaz jako Princess Fiona (voice)
  • John Lithgow jako Lord Farquaad (voice)
  • Vincent Cassel jako Monsieur Hood (voice)
  • Peter Dennis jako Ogre Hunter (voice)
  • Clive Pearse jako Ogre Hunter (voice)
  • Jim Cummings jako Captain of Guards (voice)
  • Bobby Block jako Baby Bear (voice)
  • Chris Miller jako Geppetto (voice), …
  • Cody Cameron jako Pinnochio (voice), …
  • Kathleen Freeman jako Old Woman (voice)
  • Michael Galasso jako Peter Pan (voice)
  • Christopher Knights jako Blind Mouse (voice), …
  • Simon J. Smith jako Blind Mouse (voice)
  • Conrad Vernon jako Gingerbread Man (voice)
  • Jacquie Barnbrook jako Wrestling Fan (voice)
  • Guillaume Aretos jako Merry Man (voice)

Dane techniczne:
Kod: (Shrek (2001)) [Zaznacz]
General
Unique ID                                : 234783587761864044801851000673585163724 (0xB0A1AC992A703B83ABF81A1F600D6DCC)
Complete name                            : Shrek.1.2001.PLDUB.1080p.BluRay.x264.mkv
Format                                   : Matroska
Format version                           : Version 2
File size                                : 7.01 GiB
Duration                                 : 1 h 30 min
Overall bit rate                         : 11.1 Mb/s
Frame rate                               : 23.976 FPS
Encoded date                             : 2018-06-15 09:48:25 UTC
Writing application                      : mkvmerge v7.7.0 ('Six Voices') 32bit built on Feb 28 2015 23:23:00
Writing library                          : libebml v1.3.1 + libmatroska v1.4.2

Video
ID                                       : 1
Format                                   : AVC
Format/Info                              : Advanced Video Codec
Format profile                           : High@L4
Format settings                          : CABAC / 4 Ref Frames
Format settings, CABAC                   : Yes
Format settings, Reference frames        : 4 frames
Codec ID                                 : V_MPEG4/ISO/AVC
Duration                                 : 1 h 30 min
Bit rate                                 : 10.5 Mb/s
Width                                    : 1 920 pixels
Height                                   : 1 080 pixels
Display aspect ratio                     : 16:9
Frame rate mode                          : Constant
Frame rate                               : 23.976 (24000/1001) FPS
Color space                              : YUV
Chroma subsampling                       : 4:2:0
Bit depth                                : 8 bits
Scan type                                : Progressive
Bits/(Pixel*Frame)                       : 0.211
Stream size                              : 6.61 GiB (94%)
Writing library                          : x264 core 146 r2538 121396c
Encoding settings                        : cabac=1 / ref=3 / deblock=1:0:0 / analyse=0x3:0x113 / me=hex / subme=7 / psy=1 / psy_rd=1.00:0.00 / mixed_ref=1 / me_range=16 / chroma_me=1 / trellis=1 / 8x8dct=1 / cqm=0 / deadzone=21,11 / fast_pskip=1 / chroma_qp_offset=-2 / threads=12 / lookahead_threads=2 / sliced_threads=0 / nr=0 / decimate=1 / interlaced=0 / bluray_compat=0 / constrained_intra=0 / bframes=3 / b_pyramid=2 / b_adapt=1 / b_bias=0 / direct=1 / weightb=1 / open_gop=0 / weightp=2 / keyint=240 / keyint_min=23 / scenecut=40 / intra_refresh=0 / rc_lookahead=40 / rc=2pass / mbtree=1 / bitrate=10500 / ratetol=1.0 / qcomp=0.60 / qpmin=0 / qpmax=69 / qpstep=4 / cplxblur=20.0 / qblur=0.5 / ip_ratio=1.40 / aq=1:1.00
Default                                  : Yes
Forced                                   : No

Audio
ID                                       : 2
Format                                   : AC-3
Format/Info                              : Audio Coding 3
Commercial name                          : Dolby Digital
Codec ID                                 : A_AC3
Duration                                 : 1 h 30 min
Bit rate mode                            : Constant
Bit rate                                 : 640 kb/s
Channel(s)                               : 6 channels
Channel layout                           : L R C LFE Ls Rs
Sampling rate                            : 48.0 kHz
Frame rate                               : 31.250 FPS (1536 SPF)
Compression mode                         : Lossy
Stream size                              : 413 MiB (6%)
Language                                 : Polish
Service kind                             : Complete Main
Default                                  : Yes
Forced                                   : No


Podgląd:


Shrek 2 (2004) [7,18 GB] [DP] [AVC 10.5 Mb/s] [AC-3 640 kb/s]

Szybki podgląd:
Polski tytuł: Shrek 2
Rok premiery: 2004, Kategoria wiekowa: 0
Rozmiar: 7,18 GB, Czas trwania: 1 h 32 min, Typ wydania: Bluray
Informacje językowe: Dubbing Polski

Writing library: x264 core 146 r2538 121396c, libebml v1.3.1 + libmatroska v1.4.2
Writing application: mkvmerge v7.7.0 [32bit] built on Feb 28 2015 23:23:00, Format: Matroska, Version: Version 2
Video: #1, Format: AVC, Codec ID: V_MPEG4/ISO/AVC, Bit rate: 10.5 Mb/s, Frame rate: 23.976 (24000/1001) FPS
Width: 1 920 pixels, Height: 1 080 pixels, Display aspect ratio: 16:9, Bit depth: 8 bits, Stream size: 6.77 GiB (94%)

Audio: #1, Format: AC-3, Codec ID: A_AC3, Bit rate: 640 kb/s, Sampling rate: 48.0 kHz
Commercial name: Dolby Digital, Language: Polish, Channel(s): 6 channels, Channel layout: L R C LFE Ls Rs, Stream size: 423 MiB (6%)

Informacje:
Tytuł: Shrek 2
Ocena: IMDB - 7.3/10 (487K), Filmweb - 7,4/10 (303 993)
Nagrody: Nominated for 2 Oscars, 18 wins & 52 nominations total
Reżyseria: Andrew Adamson, Kelly Asbury
Scenariusz: David N. Weiss, Joe Stillman
Gatunek: Animacja, Familijny, Komedia
Premiera: 2 lipca 2004 (Polska), 8 maja 2004 (Świat)
Boxoffice: $928 760 770 na świecie, $441 226 247 w USA, $487 534 523 poza USA
Studio: DreamWorks SKG (przedstawia)  /  DreamWorks Animation  /  Pacific Data Images (PDI)
Budżet: $150 000 000
Na podstawie: Cody Cameron  (dialogi)

Opis:
Shrek i Fiona postanawiają odwiedzić rodziców księżniczki, którzy nie wiedzą jednak, że poślubiła ona ogra, a sama zmieniła się w ogrzycę.

Większy opis:
Po powrocie z miesiąca miodowego Shrek i Fiona postanawiają odwiedzić rodziców księżniczki, do których dotarła jedynie wiadomość o ślubie ich córki z prawdziwą miłością jej życia. Młoda para rusza więc do królestwa Zasiedmiogórogrodu. Problem jednak w tym, że rodzice Fiony w ogóle nie zdają sobie sprawy z ciążącej na niej klątwy. W związku z tym są pewni, iż poślubiła ona kogoś z wyższych sfer, kawalera pokroju Lorda Farquaada - władcy rządzącego zasobnym państwem. Jakież więc jest zdziwienie, kiedy ich zięć okazuje się ważącym ponad 300 kilogramów zielonym ogrem nie przywiązującym wagi do higieny, któremu w dodatku towarzyszy gadający osioł.

Etykieta:


Obsada:
  • Mike Myers jako Shrek (voice)
  • Eddie Murphy jako Donkey (voice)
  • Cameron Diaz jako Princess Fiona (voice)
  • Julie Andrews jako Queen (voice)
  • Antonio Banderas jako Puss In Boots (voice)
  • John Cleese jako King (voice)
  • Rupert Everett jako Prince Charming (voice)
  • Jennifer Saunders jako Fairy Godmother (voice)
  • Aron Warner jako Wolf (voice)
  • Kelly Asbury jako Page (voice), …
  • Cody Cameron jako Pinocchio (voice), …
  • Conrad Vernon jako Gingerbread Man (voice), …
  • Christopher Knights jako Blind Mouse (voice)
  • David P. Smith jako Herald (voice), …
  • Mark Moseley jako Mirror (voice), …
  • Kelly Cooney jako Fast Food Clerk (voice)
  • Wendy Bilanski jako Bar Frog (voice)
  • Larry King jako Ugly Stepsister (voice)

Dane techniczne:
Kod: (Shrek II (2004)) [Zaznacz]
General
Unique ID                                : 186628918616176522870839548476321728308 (0x8C676C1AE12E0BD4B5036AFD5EF88734)
Complete name                            : Shrek.2.2004.PLDUB.1080p.BluRay.x264.mkv
Format                                   : Matroska
Format version                           : Version 2
File size                                : 7.19 GiB
Duration                                 : 1 h 32 min
Overall bit rate                         : 11.1 Mb/s
Frame rate                               : 23.976 FPS
Encoded date                             : 2018-06-15 17:27:40 UTC
Writing application                      : mkvmerge v7.7.0 ('Six Voices') 32bit built on Feb 28 2015 23:23:00
Writing library                          : libebml v1.3.1 + libmatroska v1.4.2

Video
ID                                       : 1
Format                                   : AVC
Format/Info                              : Advanced Video Codec
Format profile                           : High@L4
Format settings                          : CABAC / 4 Ref Frames
Format settings, CABAC                   : Yes
Format settings, Reference frames        : 4 frames
Codec ID                                 : V_MPEG4/ISO/AVC
Duration                                 : 1 h 32 min
Bit rate                                 : 10.5 Mb/s
Width                                    : 1 920 pixels
Height                                   : 1 080 pixels
Display aspect ratio                     : 16:9
Frame rate mode                          : Constant
Frame rate                               : 23.976 (24000/1001) FPS
Color space                              : YUV
Chroma subsampling                       : 4:2:0
Bit depth                                : 8 bits
Scan type                                : Progressive
Bits/(Pixel*Frame)                       : 0.211
Stream size                              : 6.77 GiB (94%)
Writing library                          : x264 core 146 r2538 121396c
Encoding settings                        : cabac=1 / ref=3 / deblock=1:0:0 / analyse=0x3:0x113 / me=hex / subme=7 / psy=1 / psy_rd=1.00:0.00 / mixed_ref=1 / me_range=16 / chroma_me=1 / trellis=1 / 8x8dct=1 / cqm=0 / deadzone=21,11 / fast_pskip=1 / chroma_qp_offset=-2 / threads=12 / lookahead_threads=2 / sliced_threads=0 / nr=0 / decimate=1 / interlaced=0 / bluray_compat=0 / constrained_intra=0 / bframes=3 / b_pyramid=2 / b_adapt=1 / b_bias=0 / direct=1 / weightb=1 / open_gop=0 / weightp=2 / keyint=240 / keyint_min=23 / scenecut=40 / intra_refresh=0 / rc_lookahead=40 / rc=2pass / mbtree=1 / bitrate=10500 / ratetol=1.0 / qcomp=0.60 / qpmin=0 / qpmax=69 / qpstep=4 / cplxblur=20.0 / qblur=0.5 / ip_ratio=1.40 / aq=1:1.00
Default                                  : Yes
Forced                                   : No

Audio
ID                                       : 2
Format                                   : AC-3
Format/Info                              : Audio Coding 3
Commercial name                          : Dolby Digital
Codec ID                                 : A_AC3
Duration                                 : 1 h 32 min
Bit rate mode                            : Constant
Bit rate                                 : 640 kb/s
Channel(s)                               : 6 channels
Channel layout                           : L R C LFE Ls Rs
Sampling rate                            : 48.0 kHz
Frame rate                               : 31.250 FPS (1536 SPF)
Compression mode                         : Lossy
Stream size                              : 423 MiB (6%)
Language                                 : Polish
Service kind                             : Complete Main
Default                                  : Yes
Forced                                   : No


Podgląd:


Shrek Trzeci / Shrek the Third (2007) [7,21 GB] [DP] [AVC 10.5 Mb/s] [AC-3 640 kb/s]

Szybki podgląd:
Polski tytuł: Shrek Trzeci
Angielski tytuł: Shrek the Third
Rok premiery: 2007, Kategoria wiekowa: b.o.
Rozmiar: 7,21 GB, Czas trwania: 1 h 32 min, Typ wydania: Bluray
Informacje językowe: Dubbing Polski

Writing library: x264 core 146 r2538 121396c, libebml v1.3.1 + libmatroska v1.4.2
Writing application: mkvmerge v7.7.0 [32bit] built on Feb 28 2015 23:23:00, Format: Matroska, Version: Version 2
Video: #1, Format: AVC, Codec ID: V_MPEG4/ISO/AVC, Bit rate: 10.5 Mb/s, Frame rate: 23.976 (24000/1001) FPS
Width: 1 920 pixels, Height: 1 080 pixels, Display aspect ratio: 16:9, Bit depth: 8 bits, Stream size: 6.80 GiB (94%)

Audio: #1, Format: AC-3, Codec ID: A_AC3, Bit rate: 640 kb/s, Sampling rate: 48.0 kHz
Commercial name: Dolby Digital, Language: Polish, Channel(s): 6 channels, Channel layout: L R C LFE Ls Rs, Stream size: 425 MiB (6%)

Informacje:
Tytuł: Shrek Trzeci / Shrek the Third
Ocena: IMDB - 6.1/10 (322K), Filmweb - 6,6/10 (213 149)
Nagrody: Nominated for 1 BAFTA Award, 5 wins & 17 nominations total
Reżyseria: Chris Miller, Raman Hui
Scenariusz: Peter S. Seaman, Jeffrey Price
Gatunek: Animacja, Familijny, Komedia
Premiera: 29 czerwca 2007 (Polska), 6 maja 2007 (Świat)
Boxoffice: $813 367 380 na świecie, $322 719 944 w USA, $490 647 436 poza USA
Studio: DreamWorks Animation  /  Pacific Data Images (PDI)
Budżet: $160 000 000
Na podstawie: Cody Cameron  (dialogi)

Opis:
Shrek i Fiona nie czują się dobrze w roli pary królewskiej, więc ogr wyrusza na poszukiwanie innego następcy tronu.

Większy opis:
Historii zielonego ogra ciąg dalszy. Ojciec Fiony zaakceptował ostatecznie swojego zięcia, zdecydował nawet, że Shrek i Fiona mają pełnić obowiązki panującej pary królewskiej. Oboje nie czują jednak się w tej roli najlepiej, a Shrek z miłą chęcią wróciłby na swoje bagno. Król postanawia więc, że jeśli odnajdą następcę tronu, który obejmie rządy i godnie ich zastąpi, będą mogli opuścić królestwo i żyć własnym życiem. Odpowiednim kandydatem na króla jest siostrzeniec królowej Lilian, książę Artie. Shrek wyrusza, razem ze swoimi wiernymi druhami: Osiołkiem i Kotem w butach, w daleką podróż, aby odnaleźć i przekonać zbuntowanego Artiego, że powinien zasiąść na tronie. Tymczasem, podczas nieobecności Shreka w królestwie, Książę z bajki przeprowadza zamach stanu. Fiona organizuje ruch oporu, który ma przeciwstawić się uzurpatorowi do czasu, aż Shrek, Osiołek, Kot w butach i przyszły król Artur powrócą z podróży.

Etykieta:


Obsada:
  • Mike Myers jako Shrek (voice)
  • Cameron Diaz jako Princess Fiona (voice)
  • Eddie Murphy jako Donkey (voice)
  • Antonio Banderas jako Puss in Boots (voice)
  • Julie Andrews jako Queen (voice)
  • John Cleese jako King (voice)
  • Rupert Everett jako Prince Charming (voice)
  • Eric Idle jako Merlin (voice)
  • Justin Timberlake jako Artie (voice)
  • Susanne Blakeslee jako Evil Queen (voice)
  • Cody Cameron jako Pinocchio (voice), …
  • Larry King jako Doris (voice)
  • Christopher Knights jako Blind Mice (voice), …
  • John Krasinski jako Lancelot (voice)
  • Ian McShane jako Captain Hook (voice)
  • Cheri Oteri jako Sleeping Beauty (voice), …
  • Regis Philbin jako Mabel (voice)
  • Amy Poehler jako Snow White (voice)

Dane techniczne:
Kod: (Shrek III The Third (2007)) [Zaznacz]
General
Unique ID                                : 210270616159877107295923477209214122233 (0x9E30A5C9AF25B4958555AF959B7C78F9)
Complete name                            : Shrek.3.The.Third.2007.PLDUB.1080p.BluRay.x264.mkv
Format                                   : Matroska
Format version                           : Version 2
File size                                : 7.22 GiB
Duration                                 : 1 h 32 min
Overall bit rate                         : 11.1 Mb/s
Frame rate                               : 23.976 FPS
Encoded date                             : 2018-06-16 01:10:36 UTC
Writing application                      : mkvmerge v7.7.0 ('Six Voices') 32bit built on Feb 28 2015 23:23:00
Writing library                          : libebml v1.3.1 + libmatroska v1.4.2

Video
ID                                       : 1
Format                                   : AVC
Format/Info                              : Advanced Video Codec
Format profile                           : High@L4
Format settings                          : CABAC / 4 Ref Frames
Format settings, CABAC                   : Yes
Format settings, Reference frames        : 4 frames
Codec ID                                 : V_MPEG4/ISO/AVC
Duration                                 : 1 h 32 min
Bit rate                                 : 10.5 Mb/s
Width                                    : 1 920 pixels
Height                                   : 1 080 pixels
Display aspect ratio                     : 16:9
Frame rate mode                          : Constant
Frame rate                               : 23.976 (24000/1001) FPS
Color space                              : YUV
Chroma subsampling                       : 4:2:0
Bit depth                                : 8 bits
Scan type                                : Progressive
Bits/(Pixel*Frame)                       : 0.211
Stream size                              : 6.80 GiB (94%)
Writing library                          : x264 core 146 r2538 121396c
Encoding settings                        : cabac=1 / ref=3 / deblock=1:0:0 / analyse=0x3:0x113 / me=hex / subme=7 / psy=1 / psy_rd=1.00:0.00 / mixed_ref=1 / me_range=16 / chroma_me=1 / trellis=1 / 8x8dct=1 / cqm=0 / deadzone=21,11 / fast_pskip=1 / chroma_qp_offset=-2 / threads=12 / lookahead_threads=2 / sliced_threads=0 / nr=0 / decimate=1 / interlaced=0 / bluray_compat=0 / constrained_intra=0 / bframes=3 / b_pyramid=2 / b_adapt=1 / b_bias=0 / direct=1 / weightb=1 / open_gop=0 / weightp=2 / keyint=240 / keyint_min=23 / scenecut=40 / intra_refresh=0 / rc_lookahead=40 / rc=2pass / mbtree=1 / bitrate=10500 / ratetol=1.0 / qcomp=0.60 / qpmin=0 / qpmax=69 / qpstep=4 / cplxblur=20.0 / qblur=0.5 / ip_ratio=1.40 / aq=1:1.00
Default                                  : Yes
Forced                                   : No

Audio
ID                                       : 2
Format                                   : AC-3
Format/Info                              : Audio Coding 3
Commercial name                          : Dolby Digital
Codec ID                                 : A_AC3
Duration                                 : 1 h 32 min
Bit rate mode                            : Constant
Bit rate                                 : 640 kb/s
Channel(s)                               : 6 channels
Channel layout                           : L R C LFE Ls Rs
Sampling rate                            : 48.0 kHz
Frame rate                               : 31.250 FPS (1536 SPF)
Compression mode                         : Lossy
Stream size                              : 425 MiB (6%)
Language                                 : Polish
Service kind                             : Complete Main
Default                                  : Yes
Forced                                   : No


Podgląd:


Shrek 4 / Shrek Forever After (2010) [7,25 GB] [DP] [AVC 10.5 Mb/s] [AC-3 640 kb/s]

Szybki podgląd:
Polski tytuł: Shrek 4
Angielski tytuł: Shrek Forever After
Rok premiery: 2010, Kategoria wiekowa: 0
Rozmiar: 7,25 GB, Czas trwania: 1 h 33 min, Typ wydania: Bluray
Informacje językowe: Dubbing Polski

Writing library: x264 core 146 r2538 121396c, libebml v1.3.1 + libmatroska v1.4.2
Writing application: mkvmerge v7.7.0 [32bit] built on Feb 28 2015 23:23:00, Format: Matroska, Version: Version 2
Video: #1, Format: AVC, Codec ID: V_MPEG4/ISO/AVC, Bit rate: 10.5 Mb/s, Frame rate: 23.976 (24000/1001) FPS
Width: 1 920 pixels, Height: 816 pixels, Display aspect ratio: 2.35:1, Bit depth: 8 bits, Stream size: 6.83 GiB (94%)

Audio: #1, Format: AC-3, Codec ID: A_AC3, Bit rate: 640 kb/s, Sampling rate: 48.0 kHz
Commercial name: Dolby Digital, Language: Polish, Channel(s): 6 channels, Channel layout: L R C LFE Ls Rs, Stream size: 427 MiB (6%)

Informacje:
Tytuł: Shrek 4 / Shrek Forever After
Ocena: IMDB - 6.3/10 (217K), Filmweb - 6,6/10 (160 750)
Nagrody: 1 win & 13 nominations
Reżyseria: Mike Mitchell
Scenariusz: Darren Lemke, Josh Klausner
Gatunek: Animacja, Familijny, Komedia
Premiera: 9 lipca 2010 (Polska), 21 kwietnia 2010 (Świat)
Boxoffice: $752 600 867 na świecie, $238 736 787 w USA, $513 864 080 poza USA
Studio: DreamWorks Animation  /  Pacific Data Images (PDI)
Budżet: $165 000 000
Na podstawie: William Steig  (książka)

Opis:
Życie Shreka popadło w rutynę; ot żona, dzieci i pieluchy. Tęskniąc za czasami, kiedy budził postrach wśród okolicznych wieśniaków, ogr kupuje od Rumpelstiltskina jeden beztroski dzień.

Większy opis:
Czym zajmują się ogry, kiedy już rozprawią się ze straszliwym smokiem, poślubią piękną królewnę i ocalą królestwo teścia? Shrek został pantoflarzem. Małorolni nie uciekają już przed nim z krzykiem. Dziś proszą, żeby podpisał im się na widłach. Tęskniąc za czasami, kiedy "żył jak na ogra przystało", Shrek nieopatrznie zawiera pakt z podstępnym Rumplesnickim i ląduje w rządzonej przez niego, spaczonej, alternatywnej wersji Zasiedmiogórogrodu. Tu na ogry się poluje, a Shrek i Fiona nigdy się nie spotkali. Czy Shrekowi uda się odwrócić zaklęcie, uratować przyjaciół i odzyskać ukochaną?

Etykieta:


Obsada:
  • Mike Myers jako Shrek (voice)
  • Cameron Diaz jako Princess Fiona (voice)
  • Eddie Murphy jako Donkey (voice)
  • Antonio Banderas jako Puss in Boots (voice)
  • Julie Andrews jako Queen (voice)
  • Jon Hamm jako Brogan (voice)
  • John Cleese jako King (voice)
  • Walt Dohrn jako Rumpelstiltskin (voice), …
  • Jane Lynch jako Gretched (voice)
  • Craig Robinson jako Cookie (voice)
  • Lake Bell jako Patrol Witch (voice), …
  • Kathy Griffin jako Dancing Witch (voice), …
  • Mary Kay Place jako Guard Witch (voice)
  • Kristen Schaal jako Pumpkin Witch (voice), …
  • Meredith Vieira jako Broomsy Witch (voice)
  • Ryan Seacrest jako Father of Butter Pants (voice)
  • Cody Cameron jako Pinocchio (voice), …
  • Larry King jako Doris (voice)

Dane techniczne:
Kod: (Shrek IV Forever After (2010)) [Zaznacz]
General
Unique ID                                : 195216894314942877840269781174125855264 (0x92DD67FF6B661D97ABC76FABD31C0220)
Complete name                            : Shrek.4.Forever.After.2010.PLDUB.1080p.BluRay.AC3.x264.mkv
Format                                   : Matroska
Format version                           : Version 2
File size                                : 7.25 GiB
Duration                                 : 1 h 33 min
Overall bit rate                         : 11.1 Mb/s
Frame rate                               : 23.976 FPS
Encoded date                             : 2018-06-16 07:49:01 UTC
Writing application                      : mkvmerge v7.7.0 ('Six Voices') 32bit built on Feb 28 2015 23:23:00
Writing library                          : libebml v1.3.1 + libmatroska v1.4.2

Video
ID                                       : 1
Format                                   : AVC
Format/Info                              : Advanced Video Codec
Format profile                           : High@L4
Format settings                          : CABAC / 4 Ref Frames
Format settings, CABAC                   : Yes
Format settings, Reference frames        : 4 frames
Codec ID                                 : V_MPEG4/ISO/AVC
Duration                                 : 1 h 33 min
Bit rate                                 : 10.5 Mb/s
Width                                    : 1 920 pixels
Height                                   : 816 pixels
Display aspect ratio                     : 2.35:1
Frame rate mode                          : Constant
Frame rate                               : 23.976 (24000/1001) FPS
Color space                              : YUV
Chroma subsampling                       : 4:2:0
Bit depth                                : 8 bits
Scan type                                : Progressive
Bits/(Pixel*Frame)                       : 0.280
Stream size                              : 6.83 GiB (94%)
Writing library                          : x264 core 146 r2538 121396c
Encoding settings                        : cabac=1 / ref=3 / deblock=1:0:0 / analyse=0x3:0x113 / me=hex / subme=7 / psy=1 / psy_rd=1.00:0.00 / mixed_ref=1 / me_range=16 / chroma_me=1 / trellis=1 / 8x8dct=1 / cqm=0 / deadzone=21,11 / fast_pskip=1 / chroma_qp_offset=-2 / threads=12 / lookahead_threads=2 / sliced_threads=0 / nr=0 / decimate=1 / interlaced=0 / bluray_compat=0 / constrained_intra=0 / bframes=3 / b_pyramid=2 / b_adapt=1 / b_bias=0 / direct=1 / weightb=1 / open_gop=0 / weightp=2 / keyint=240 / keyint_min=23 / scenecut=40 / intra_refresh=0 / rc_lookahead=40 / rc=2pass / mbtree=1 / bitrate=10500 / ratetol=1.0 / qcomp=0.60 / qpmin=0 / qpmax=69 / qpstep=4 / cplxblur=20.0 / qblur=0.5 / ip_ratio=1.40 / aq=1:1.00
Default                                  : Yes
Forced                                   : No

Audio
ID                                       : 2
Format                                   : AC-3
Format/Info                              : Audio Coding 3
Commercial name                          : Dolby Digital
Codec ID                                 : A_AC3
Duration                                 : 1 h 33 min
Bit rate mode                            : Constant
Bit rate                                 : 640 kb/s
Channel(s)                               : 6 channels
Channel layout                           : L R C LFE Ls Rs
Sampling rate                            : 48.0 kHz
Frame rate                               : 31.250 FPS (1536 SPF)
Compression mode                         : Lossy
Stream size                              : 427 MiB (6%)
Language                                 : Polish
Service kind                             : Complete Main
Default                                  : Yes
Forced                                   : No


Podgląd:

Download:
Przepraszamy, ale nie możesz zobaczyć ukrytej zawartości. Musisz się zalogować, aby zobaczyć tę zawartość.

Przepraszamy, ale nie możesz zobaczyć ukrytej zawartości. Musisz się zalogować, aby zobaczyć tę zawartość.

Nie masz uprawnień do przeglądania linków. Zarejestruj lub Zaloguj
Pierwszy post: Shrek Tetralogia / Shrek Tetralogy (2001 - 2010) [28.67 GiB] [DP] [AVC 10.5 Mb/s] [AC-3 640 kb/s]
« Ostatnia zmiana: 17 Sierpień 2023, 18:35:59 wysłana przez TryHackX »