Wilk z Wall Street / The Wolf of Wall Street (2013) [13,99 GiB] [LP] [AVC 10.5 Mb/s] [AC-3 640 kb/s]
TryHackX - Forum

Wilk z Wall Street / The Wolf of Wall Street (2013) [13,99 GiB] [LP] [AVC 10.5 Mb/s] [AC-3 640 kb/s]

Offline TryHackX

  • Administrator
  • Aktywny użytkownik
  • *****
    • Wiadomości: 170
    • Reputacja +0/-0
    • Zobacz profil
Wilk z Wall Street / The Wolf of Wall Street (2013) [13,99 GiB] [LP] [AVC 10.5 Mb/s] [AC-3 640 kb/s]

Szybki podgląd:
Polski tytuł: Wilk z Wall Street
Angielski tytuł: The Wolf of Wall Street
Rok premiery: 2013, Kategoria wiekowa: 18
Rozmiar: 13,99 GiB, Czas trwania: 2 h 59 min, Typ wydania: Bluray
Informacje językowe: Lektor Polski
Przepraszamy, ale nie możesz zobaczyć ukrytej zawartości. Musisz się zalogować, aby zobaczyć tę zawartość.

Writing library: x264 core 142 r2479 dd79a61, libebml v1.4.4 + libmatroska v1.7.1
Writing application: mkvmerge v77.0 [64-bit], Format: Matroska, Version: Version 4
Video: #1, Format: AVC, Codec ID: V_MPEG4/ISO/AVC, Bit rate: 10.5 Mb/s, Frame rate: 23.976 (24000/1001) FPS
Width: 1 920 pixels, Height: 800 pixels, Display aspect ratio: 2.40:1, Bit depth: 8 bits, Stream size: 13.2 GiB (94%)

Audio: #1, Format: AC-3, Codec ID: A_AC3, Bit rate: 640 kb/s, Sampling rate: 48.0 kHz
Commercial name: Dolby Digital, Language: Polish, Channel(s): 6 channels, Channel layout: L R C LFE Ls Rs, Stream size: 823 MiB (6%)

Informacje:
Tytuł: Wilk z Wall Street / The Wolf of Wall Street
Ocena: IMDB - 8.2/10 (1.5M), Filmweb - 7,7/10 (454 243)
Nagrody: Nominated for 5 Oscars, 37 wins & 179 nominations total
Reżyseria: Martin Scorsese
Scenariusz: Terence Winter
Gatunek: Biograficzny, Komedia kryminalna
Premiera: 3 stycznia 2014 (Polska), 9 grudnia 2013 (Świat)
Boxoffice: $406 878 233 na świecie, $116 900 694 w USA, $289 977 539 poza USA
Studio: Paramount Pictures (przedstawia)  /  Red Granite Pictures (przedstawia)  /  Appian Way / więcej
Budżet: $100 000 000
Na podstawie: Jordan Belfort  (książka)

Opis:
Historia Jordana Belforta, brokera, którego błyskawiczna droga na szczyt i rozrzutny styl życia wzbudziły zainteresowanie FBI.

Większy opis:
Jeden z największych reżyserów naszych czasów, laureat Oscara Martin Scorsese przedstawia prawdziwą historię jednego z najbardziej kontrowersyjnych bohaterów Wall Street. Jordan Belfort był złotym dzieckiem świata amerykańskich finansów. Szybki i oszałamiający sukces przyniósł mu fortunę, władzę i poczucie bezkarności. Pokusy czaiły się wszędzie, a Belfort lubił im ulegać i robił to w wielkim stylu. Najpiękniejsze kobiety. Najdroższe jachty. Najbardziej wyszukane narkotyki. Szalona impreza bez cienia poczucia odpowiedzialności. A w ślad za tym nieuniknione błędy i pragnienie jeszcze większego bogactwa. Korupcja, naginanie prawa i malwersacje podatkowe – w tym także Belfort okazał się mistrzem. Zrealizowana z rozmachem i poczuciem humoru, urzekająca blichtrem, a jednak gorzka opowieść o człowieku, który zawsze chciał więcej, a dostał to na co zasłużył.

Etykieta:


Obsada:
  • Leonardo DiCaprio jako Jordan Belfort
  • Jonah Hill jako Donnie Azoff
  • Margot Robbie jako Naomi Lapaglia
  • Matthew McConaughey jako Mark Hanna
  • Kyle Chandler jako Agent Patrick Denham
  • Rob Reiner jako Max Belfort
  • Jon Bernthal jako Brad
  • Jon Favreau jako Manny Riskin
  • Jean Dujardin jako Jean Jacques Saurel
  • Joanna Lumley jako Aunt Emma
  • Cristin Milioti jako Teresa Petrillo
  • Christine Ebersole jako Leah Belfort
  • Shea Whigham jako Captain Ted Beecham
  • Katarina Cas jako Chantalle
  • P.J. Byrne jako Nicky Koskoff ('Rugrat')
  • Kenneth Choi jako Chester Ming
  • Brian Sacca jako Robbie Feinberg ('Pinhead')
  • Henry Zebrowski jako Alden Kupferberg ('Sea Otter')

Dane techniczne:
Kod: (The Wolf of Wall Street (2013) ) [Zaznacz]
General
Unique ID                                : 158104862686485616859689856625167645918 (0x76F1E391944B8053EC5631FFA39D3CDE)
Complete name                            : The Wolf of Wall Street (2013) [1080p][PL][BluRay][AVC & AC-3] (1).mkv
Format                                   : Matroska
Format version                           : Version 4
File size                                : 14.0 GiB
Duration                                 : 2 h 59 min
Overall bit rate                         : 11.1 Mb/s
Frame rate                               : 23.976 FPS
Encoded date                             : 2023-07-28 17:56:57 UTC
Writing application                      : mkvmerge v77.0 ('Elemental') 64-bit
Writing library                          : libebml v1.4.4 + libmatroska v1.7.1

Video
ID                                       : 1
Format                                   : AVC
Format/Info                              : Advanced Video Codec
Format profile                           : Main@L4.2
Format settings                          : CABAC / 4 Ref Frames
Format settings, CABAC                   : Yes
Format settings, Reference frames        : 4 frames
Codec ID                                 : V_MPEG4/ISO/AVC
Duration                                 : 2 h 59 min
Bit rate                                 : 10.5 Mb/s
Width                                    : 1 920 pixels
Height                                   : 800 pixels
Display aspect ratio                     : 2.40:1
Frame rate mode                          : Constant
Frame rate                               : 23.976 (24000/1001) FPS
Color space                              : YUV
Chroma subsampling                       : 4:2:0
Bit depth                                : 8 bits
Scan type                                : Progressive
Bits/(Pixel*Frame)                       : 0.285
Stream size                              : 13.2 GiB (94%)
Writing library                          : x264 core 142 r2479 dd79a61
Encoding settings                        : cabac=1 / ref=1 / deblock=1:0:0 / analyse=0x1:0x111 / me=hex / subme=2 / psy=1 / psy_rd=1.00:0.00 / mixed_ref=0 / me_range=16 / chroma_me=1 / trellis=0 / 8x8dct=0 / cqm=0 / deadzone=21,11 / fast_pskip=1 / chroma_qp_offset=0 / threads=12 / lookahead_threads=4 / sliced_threads=0 / nr=0 / decimate=1 / interlaced=0 / bluray_compat=0 / constrained_intra=0 / bframes=3 / b_pyramid=2 / b_adapt=1 / b_bias=0 / direct=1 / weightb=1 / open_gop=0 / weightp=1 / keyint=240 / keyint_min=24 / scenecut=40 / intra_refresh=0 / rc_lookahead=10 / rc=2pass / mbtree=1 / bitrate=10500 / ratetol=1.0 / qcomp=0.60 / qpmin=0 / qpmax=69 / qpstep=4 / cplxblur=20.0 / qblur=0.5 / vbv_maxrate=50000 / vbv_bufsize=62500 / nal_hrd=none / filler=0 / ip_ratio=1.40 / aq=1:1.00
Default                                  : Yes
Forced                                   : No
Color range                              : Limited
Color primaries                          : BT.709
Transfer characteristics                 : BT.709
Matrix coefficients                      : BT.709

Audio
ID                                       : 2
Format                                   : AC-3
Format/Info                              : Audio Coding 3
Commercial name                          : Dolby Digital
Codec ID                                 : A_AC3
Duration                                 : 2 h 59 min
Bit rate mode                            : Constant
Bit rate                                 : 640 kb/s
Channel(s)                               : 6 channels
Channel layout                           : L R C LFE Ls Rs
Sampling rate                            : 48.0 kHz
Frame rate                               : 31.250 FPS (1536 SPF)
Compression mode                         : Lossy
Delay relative to video                  : -5 ms
Stream size                              : 823 MiB (6%)
Language                                 : Polish
Service kind                             : Complete Main
Default                                  : Yes
Forced                                   : No


Podgląd:

Download:
Przepraszamy, ale nie możesz zobaczyć ukrytej zawartości. Musisz się zalogować, aby zobaczyć tę zawartość.

Przepraszamy, ale nie możesz zobaczyć ukrytej zawartości. Musisz się zalogować, aby zobaczyć tę zawartość.

Torrent: The Wolf of Wall Street (2013).torrent
Nie masz uprawnień do przeglądania linków. Zarejestruj lub Zaloguj

« Ostatnia zmiana: 28 Lipiec 2023, 21:53:49 wysłana przez TryHackX »