TryHackX - Forum

Pacyfik / The Pacific (2010) [36,8 GB] [MLPNM] [AVC 7 500 kb/s] [DTS 1 509 kb/s] [AC-3 448 kb/s]

Offline TryHackX

  • Administrator
  • Użytkownik
  • *****
    • Wiadomości: 98
    • Reputacja +0/-0
    • Zobacz profil
Pacyfik / The Pacific (2010) [36,8 GB] [MLPNM] [AVC 7 500 kb/s] [DTS 1 509 kb/s] [AC-3 448 kb/s]

Szybki podgląd:
Polski tytuł: Pacyfik
Angielski tytuł: The Pacific
Rok premiery: 2010
Rozmiar: 36,8 GB, Czas trwania: ~1 godzina, Typ wydania: Bluray
Informacje językowe: Dubbing Angielski, Lektor Polski, Napisy Polskie.
Ilość odcinków: 10
Przepraszamy, ale nie możesz zobaczyć ukrytej zawartości. Musisz się zalogować, aby zobaczyć tę zawartość.

Writing library: x264 core 107 r1745+311 2317302 aac oraz libebml v1.3.3 + libmatroska v1.4.4

Format: AVC, Codec ID: V_MPEG4/ISO/AVC, Bit rate: 7 500 kb/s, Original frame rate: 23.976 FPS
Width: 1 280 pixels, Height: 720 pixels, Display aspect ratio: 16:9, Bit depth: 8 bits, Stream size: ~3.13 GiB (79%)

Audio: #1, Format: AC-3, Codec ID: A_AC3, Bit rate: 448 kb/s, Sampling rate: 48.0 kHz
Language: Polish, Channel(s): 2 channels, Channel layout: L R, Stream size: 192 MiB (5%)

Audio: #2, Format: DTS, Codec ID: A_DTS, Bit rate: 1 509 kb/s, Sampling rate: 48.0 kHz, Bit depth: 24 bits
Language: English, Channel(s): 6 channels, Channel layout: C L R Ls Rs LFE, Stream size: 645 MiB (16%)

Text: #1, Language: Polish, Format: UTF-8, Codec ID: S_TEXT/UTF8

Text: #2, Language: English, Format: UTF-8, Codec ID: S_TEXT/UTF8

Informacje:
Tytuł: Pacyfik / The Pacific
Ocena: IMDB - 8,3/10 (117 244), Filmweb - 8,0/10 (45 298)
Twórcy: Timothy Van Patten, Bruce C. McKenna
Gatunek: Dramat, Wojenny
Produkcja: USA
Premiera: 14 marca 2010 (Światowa premiera)
Studio: DreamWorks SKG / HBO Films / Playtone
Nagrody: 8 nagród Emmy, 7 innych nagród i 25 nominacji

Opis:
Prawdziwa historia trzech żołnierzy Korpusu Piechoty Morskiej Stanów Zjednoczonych, którzy walczą z Japończykami na wyspach Pacyfiku podczas II Wojny Światowej.

Etykieta:

Obsada:
James Badge Dale jako PFC Robert Leckie
Joseph Mazzello jako PFC Eugene Sledge…
Jon Seda jako Sgt. John Basilone
Ashton Holmes jako PFC Sidney Phillips
Josh Helman jako PFC Lew 'Chuckler' Juergens
Rami Malek jako PFC Merriell 'Snafu' Shelton
Martin McCann jako Cpl. R.V. Burgin…
Keith Nobbs jako PFC Wilbur 'Runner' Conley
Toby Leonard Moore jako 2nd Lt. Stone…
Tom Hanks jako Narrator
Jacob Pitts jako PFC Bill 'Hoosier' Smith
Nathin Art Butler jako Private Young
Brendan Fletcher jako PFC Bill Leyden
Tom Budge jako PFC Ronnie Gibson
Dylan Young jako PFC Jay De L'eau…
Conor O'Farrell jako Dr. Sledge
William Sadler jako Lt Col. Lewis 'Chesty' Puller
Joshua Bitton jako Sgt. J.P. Morgan…

Informacje dodatkowe:
Wysokiej jakości wstawka z napisami oraz poprawionymi napisami polskimi gdzie nie pojawiają się niechciane znaki jak / na początku zdania.

Dane techniczne:
Kod: (E09) Nie masz uprawnień do przeglądania linków. Zarejestruj lub Zaloguj
General
Unique ID                                : 183825844696046297931297390501405276263 (0x8A4B91E3FFC14F67BD06853D92223867)
Complete name                            : The Pacific (2010) E09 [720p 8 bits] [AVC 7 500 kbs] [DTS 1 509 kbs] [Bluray] [MLPNM].mkv
Format                                   : Matroska
Format version                           : Version 4
File size                                : 3.95 GiB
Duration                                 : 59 min 46 s
Overall bit rate                         : 9 457 kb/s
Frame rate                               : 23.976 FPS
Encoded date                             : 2016-06-05 01:17:54 UTC
Writing application                      : mkvmerge v9.0.0 ('Power to progress') 64bit
Writing library                          : libebml v1.3.3 + libmatroska v1.4.4

Video
ID                                       : 1
Format                                   : AVC
Format/Info                              : Advanced Video Codec
Format profile                           : High@L4.1
Format settings                          : CABAC / 9 Ref Frames
Format settings, CABAC                   : Yes
Format settings, Reference frames        : 9 frames
Codec ID                                 : V_MPEG4/ISO/AVC
Duration                                 : 59 min 46 s
Bit rate                                 : 7 500 kb/s
Width                                    : 1 280 pixels
Height                                   : 720 pixels
Display aspect ratio                     : 16:9
Frame rate mode                          : Constant
Frame rate                               : 23.976 FPS
Color space                              : YUV
Chroma subsampling                       : 4:2:0
Bit depth                                : 8 bits
Scan type                                : Progressive
Bits/(Pixel*Frame)                       : 0.339
Stream size                              : 3.13 GiB (79%)
Writing library                          : x264 core 107 r1745+311 2317302
Encoding settings                        : cabac=1 / ref=9 / deblock=1:-3:-3 / analyse=0x3:0x113 / me=tesa / subme=10 / psy=1 / fade_compensate=0.00 / psy_rd=1.00:0.00 / mixed_ref=1 / me_range=24 / chroma_me=1 / trellis=2 / 8x8dct=1 / cqm=0 / deadzone=21,11 / fast_pskip=0 / chroma_qp_offset=-2 / threads=12 / sliced_threads=0 / nr=0 / decimate=0 / interlaced=0 / constrained_intra=0 / fgo=0 / bframes=9 / b_pyramid=2 / b_adapt=2 / b_bias=0 / direct=3 / weightb=1 / open_gop=0 / weightp=2 / keyint=250 / keyint_min=23 / scenecut=40 / intra_refresh=0 / rc=2pass / mbtree=0 / bitrate=7500 / ratetol=1.0 / qcomp=0.60 / qpmin=10 / qpmax=51 / qpstep=4 / cplxblur=20.0 / qblur=0.5 / ip_ratio=1.40 / pb_ratio=1.30 / aq=2:1.00
Language                                 : English
Default                                  : Yes
Forced                                   : No

Audio #1
ID                                       : 2
Format                                   : AC-3
Format/Info                              : Audio Coding 3
Commercial name                          : Dolby Digital
Codec ID                                 : A_AC3
Duration                                 : 59 min 46 s
Bit rate mode                            : Constant
Bit rate                                 : 448 kb/s
Channel(s)                               : 2 channels
Channel layout                           : L R
Sampling rate                            : 48.0 kHz
Frame rate                               : 31.250 FPS (1536 SPF)
Compression mode                         : Lossy
Stream size                              : 192 MiB (5%)
Language                                 : Polish
Service kind                             : Complete Main
Default                                  : Yes
Forced                                   : No

Audio #2
ID                                       : 3
Format                                   : DTS
Format/Info                              : Digital Theater Systems
Codec ID                                 : A_DTS
Duration                                 : 59 min 46 s
Bit rate mode                            : Constant
Bit rate                                 : 1 509 kb/s
Channel(s)                               : 6 channels
Channel layout                           : C L R Ls Rs LFE
Sampling rate                            : 48.0 kHz
Frame rate                               : 93.750 FPS (512 SPF)
Bit depth                                : 24 bits
Compression mode                         : Lossy
Stream size                              : 645 MiB (16%)
Title                                    : DTS 5.1 @ 1536 kbps
Language                                 : English
Default                                  : No
Forced                                   : No

Text #1
ID                                       : 4
Format                                   : UTF-8
Codec ID                                 : S_TEXT/UTF8
Codec ID/Info                            : UTF-8 Plain Text
Duration                                 : 55 min 28 s
Bit rate                                 : 43 b/s
Frame rate                               : 0.179 FPS
Count of elements                        : 595
Stream size                              : 17.8 KiB (0%)
Title                                    : English @ SRT
Language                                 : English
Default                                  : No
Forced                                   : No

Text #2
ID                                       : 5
Format                                   : UTF-8
Codec ID                                 : S_TEXT/UTF8
Codec ID/Info                            : UTF-8 Plain Text
Duration                                 : 55 min 1 s
Bit rate                                 : 32 b/s
Frame rate                               : 0.136 FPS
Count of elements                        : 450
Stream size                              : 13.3 KiB (0%)
Language                                 : Polish
Default                                  : No
Forced                                   : No

Menu
00:00:00.000                             : en:00:00:00.000
00:02:52.214                             : en:00:02:52.214
00:09:11.009                             : en:00:09:11.009
00:18:48.586                             : en:00:18:48.586
00:25:34.908                             : en:00:25:34.908
00:31:40.398                             : en:00:31:40.398
00:40:39.937                             : en:00:40:39.937
00:53:35.295                             : en:00:53:35.295

Podgląd:

Download:
Przepraszamy, ale nie możesz zobaczyć ukrytej zawartości. Musisz się zalogować, aby zobaczyć tę zawartość.

Nie masz uprawnień do przeglądania linków. Zarejestruj lub Zaloguj
Nie masz uprawnień do przeglądania linków. Zarejestruj lub Zaloguj

Warezy:
Przepraszamy, ale nie możesz zobaczyć ukrytej zawartości. Musisz się zalogować, aby zobaczyć tę zawartość.
« Ostatnia zmiana: 03 Maj 2023, 15:41:26 wysłana przez TryHackX »