TryHackX - Forum

Dorastając / Adolescence (2018) [2.74 GiB] [LP] [AVC 3 500 kb/s] [AC-3 192 kb/s]

Offline TryHackX

  • Administrator
  • Aktywny użytkownik
  • *****
    • Wiadomości: 125
    • Reputacja +0/-0
    • Zobacz profil
Dorastając / Adolescence (2018) [2.74 GiB] [LP] [AVC 3 500 kb/s] [AC-3 192 kb/s]

Szybki podgląd:
Polski tytuł: Dorastając
Angielski tytuł: Adolescence
Rok premiery: 2018, Kategoria wiekowa: TV-MA
Rozmiar: 2.74 GiB, Czas trwania: 1 h 46 min, Typ wydania: WEB-DL
Informacje językowe: Lektor Polski
Przepraszamy, ale nie możesz zobaczyć ukrytej zawartości. Musisz się zalogować, aby zobaczyć tę zawartość.

Writing library: x264 core 158 r2984 3759fcb, libebml v1.4.4 + libmatroska v1.7.1
Writing application: mkvmerge v77.0 [64-bit], Format: Matroska, Version: Version 4
Video: #1, Format: AVC, Codec ID: V_MPEG4/ISO/AVC, Bit rate: 3 500 kb/s, Frame rate: 23.976 (24000/1001) FPS
Width: 1 280 pixels, Height: 480 pixels, Display aspect ratio: 2.667, Bit depth: 8 bits, Stream size: 2.60 GiB (95%)

Audio: #1, Format: AC-3, Codec ID: A_AC3, Bit rate: 192 kb/s, Sampling rate: 48.0 kHz
Commercial name: Dolby Digital, Language: Polish, Channel(s): 2 channels, Channel layout: L R, Stream size: 144 MiB (5%)

Informacje:
Tytuł: Dorastając / Adolescence
Ocena: IMDB - 5.4/10 (976), Filmweb - 5,3/10 (474)
Reżyseria: Ashley Avis
Scenariusz: Cal Barnes, Mickey River
Gatunek: Dramat
Produkcja: USA
Premiera: 23 czerwca 2018 (Świat)

Opis:
Mający rodzinne problemy nastolatek podróżuje z przyjacielem do Venice, gdzie poznaje buntowniczą Alice. Gdy dziewczyna zabiera go na kolejne imprezy i częstuje narkotykami, Adam zakochuje się.

Większy opis:
Życie siedemnastoletniego Adama (Mickey River) dalekie jest od ideału. Jego rodzice nieustannie się kłócą, chłopak ma też ogromne problemy w rozmowie z kobietami. Pewnego dnia jego najlepszy przyjaciel Keith (Romeo Miller) postanawia mu pomóc i zabiera go z nudnego przemysłowego miasteczka Torrente w Kalifornii do tętniącego życiem i nieprzewidywalnego Venice Beach. Na miejscu Adam poznaje piękną i charyzmatyczną Alice (India Eisley). Między młodymi ludźmi wybucha płomienne uczucie. Niestety mająca wiele problemów dziewczyna wprowadza go do niebezpiecznego świata narkotyków i innych używek.

Etykieta:


Obsada:
  • Mickey River jako Adam
  • India Eisley jako Alice
  • Romeo Miller jako Keith
  • Tommy Flanagan jako Shepherd
  • Elisabeth Röhm jako Jennette
  • Michael Milford jako Dave
  • Jere Burns jako Mr. Z.
  • Ever Carradine jako Julie
  • Courtney Bandeko jako Maya
  • Krista Jasper jako Brittany
  • Victoria Zeutzius jako Caroline
  • John Driskell Hopkins jako Spider
  • Brayden Ferrell jako Ben
  • Cale Rush jako Young Adam
  • Tyler Henckel jako Ben at Two Years Old, (as Tyler Henkel)
  • Caden Henckel jako Ben at Two Years Old, (as Caden Henkel)
  • Lindsay Bushman jako Sarah
  • Ashley Arpel jako Marie

Dane techniczne:
Kod: (Adolescence (2018)) Nie masz uprawnień do przeglądania linków. Zarejestruj lub Zaloguj
General
Unique ID                                : 181781298106789669839654733343332876219 (0x88C1CDF60742CF1FE3C1D17BE5D1BFBB)
Complete name                            : Adolescence (2018) [720p 8 bits] [AVC 3 500 kbs] [AC-3 192 kbs] [Web-DL] [LP].mkv
Format                                   : Matroska
Format version                           : Version 4
File size                                : 2.74 GiB
Duration                                 : 1 h 46 min
Overall bit rate                         : 3 691 kb/s
Frame rate                               : 23.976 FPS
Encoded date                             : 2024-02-26 18:54:11 UTC
Writing application                      : mkvmerge v77.0 ('Elemental') 64-bit
Writing library                          : libebml v1.4.4 + libmatroska v1.7.1

Video
ID                                       : 1
Format                                   : AVC
Format/Info                              : Advanced Video Codec
Format profile                           : High@L4.1
Format settings                          : CABAC / 5 Ref Frames
Format settings, CABAC                   : Yes
Format settings, Reference frames        : 5 frames
Codec ID                                 : V_MPEG4/ISO/AVC
Duration                                 : 1 h 46 min
Bit rate                                 : 3 500 kb/s
Width                                    : 1 280 pixels
Height                                   : 480 pixels
Display aspect ratio                     : 2.667
Frame rate mode                          : Constant
Frame rate                               : 23.976 (24000/1001) FPS
Color space                              : YUV
Chroma subsampling                       : 4:2:0
Bit depth                                : 8 bits
Scan type                                : Progressive
Bits/(Pixel*Frame)                       : 0.238
Stream size                              : 2.60 GiB (95%)
Writing library                          : x264 core 158 r2984 3759fcb
Encoding settings                        : cabac=1 / ref=5 / deblock=1:0:0 / analyse=0x3:0x113 / me=hex / subme=8 / psy=1 / psy_rd=1.00:0.00 / mixed_ref=1 / me_range=16 / chroma_me=1 / trellis=2 / 8x8dct=1 / cqm=0 / deadzone=21,11 / fast_pskip=1 / chroma_qp_offset=-2 / threads=15 / lookahead_threads=2 / sliced_threads=0 / nr=0 / decimate=1 / interlaced=0 / bluray_compat=0 / constrained_intra=0 / bframes=3 / b_pyramid=2 / b_adapt=1 / b_bias=0 / direct=3 / weightb=1 / open_gop=0 / weightp=2 / keyint=250 / keyint_min=23 / scenecut=40 / intra_refresh=0 / rc_lookahead=50 / rc=2pass / mbtree=1 / bitrate=3500 / ratetol=1.0 / qcomp=0.60 / qpmin=0 / qpmax=69 / qpstep=4 / cplxblur=20.0 / qblur=0.5 / vbv_maxrate=62500 / vbv_bufsize=78125 / nal_hrd=none / filler=0 / ip_ratio=1.40 / aq=1:1.00
Default                                  : Yes
Forced                                   : Yes
Color range                              : Limited
Matrix coefficients                      : BT.709

Audio
ID                                       : 2
Format                                   : AC-3
Format/Info                              : Audio Coding 3
Commercial name                          : Dolby Digital
Codec ID                                 : A_AC3
Duration                                 : 1 h 45 min
Bit rate mode                            : Constant
Bit rate                                 : 192 kb/s
Channel(s)                               : 2 channels
Channel layout                           : L R
Sampling rate                            : 48.0 kHz
Frame rate                               : 31.250 FPS (1536 SPF)
Compression mode                         : Lossy
Stream size                              : 144 MiB (5%)
Language                                 : Polish
Service kind                             : Complete Main
Default                                  : Yes
Forced                                   : No


Podgląd:

Strefa Linków:
Przepraszamy, ale nie możesz zobaczyć ukrytej zawartości. Musisz się zalogować, aby zobaczyć tę zawartość.

Przepraszamy, ale nie możesz zobaczyć ukrytej zawartości. Musisz się zalogować, aby zobaczyć tę zawartość.

Nie masz uprawnień do przeglądania linków. Zarejestruj lub Zaloguj
Nie masz uprawnień do przeglądania linków. Zarejestruj lub Zaloguj