TryHackX - Forum

Mroczny Rycerz Trylogia / The Dark Knight Trilogy (2005-2012) [33,70 GB] [M/LP/NP] [HEVC 7 085 kb/s] [DTS 4 382 kb/s] [AC-3 640 kb/s]

dominikk26

  • Administrator
  • Nowy użytkownik
  • *****
    • Wiadomości: 14
    • Reputacja +0/-0
    • Zobacz profil
Mroczny Rycerz Trylogia / The Dark Knight Trilogy (2005-2012) [33,70 GB] [M/LP/NP] [HEVC 7 085 kb/s] [DTS 4 382 kb/s] [AC-3 640 kb/s]

Szybki podgląd:
Polski tytuł: Mroczny Rycerz Trylogia - Batman Początek, Mroczny Rycerz, Mroczny Rycerz Powraca.
Angielski tytuł: The Dark Knight Trilogy - Batman Begins, The Dark Knight, The Dark Knight Rises.
Rok premiery: 2005, 2008, 2012
Rozmiar: 33,70 GB, Czas trwania: 2 h 20 min - 2 h 32 min - 2 h 44 min, Typ wydania: BluRay
Informacje językowe: Dźwięk Angielski, Dźwięk lektor Polski, Napisy Polskie.
Sorry but you are not allowed to view spoiler contents.

Writing library: libebml v1.3.6 + libmatroska v1.4.9

Format: HEVC, Codec ID: V_MPEGH/ISO/HEVC, Bit rate: 6 134 kb/s - 3 814 kb/s - 7 085 kb/s, Original frame rate: 59.940 FPS - 93.750 FPS - 59.940 FPS.
Width: 1 920 pixels, Height: 800 pixels - 1 080 pixels - 1 080 pixels, Display aspect ratio: 2.40:1 - 16:9 - 16:9, Stream size: 6.00 GiB (55%) - 5.02 GiB (53%) - 8.14 GiB (61%)

Audio: #1, Format: DTS XLL, Codec ID: A_DTS, Bit rate: 4 382 kb/s - 3 814 kb/s - 4 018 kb/s, Sampling rate: 48.0 kHz, Bit depth: 24 bits
Language: English, Channel(s): 6 channels, Channel layout: C L R Ls Rs LFE, Stream size: 4.29 GiB (39%) - 4.06 GiB (42%) - 4.62 GiB (35%)

Audio: #2, Format: AC-3, Codec ID: A_AC3, Bit rate: 640 kb/s - 448 kb/s - 448 kb/s, Sampling rate: 48.0 kHz, Bit depth: 16 bits
Language: Polish, Channel(s): 6 channels, Channel layout: L R C LFE Ls Rs, Stream size: 641 MiB (6%) - 488 MiB (5%) - 527 MiB (4%)

Text: #1, Language: Polish, Format: UTF-8, Codec ID: S_TEXT/UTF8

Informacje:
Ogólne (2005 - 2012):
Reżyseria: Christopher Nolan
Scenariusz: Christopher Nolan,  Jonathan Nolan, David S. Goyer
Gatunek: Akcja, Sci-Fi
Produkcja: USA, Wielka Brytania
Batman Początek (2005):
Tytuł: Batman Początek / Batman Begins
Ocena: IMDB - 8,2/10 (1 238 145), Filmweb - 7,6 (335 458)
Premiera: 31 maja 2005 (świat)
Box Office:: $150 000 000
Nagrody: 3 nagrody Saturn oraz 29 nominacji
Mroczny Rycerz (2008):
Tytuł: Mroczny Rycerz / The Dark Knight
Ocena: IMDB - 9,0/10 (2 168 073), Filmweb - 8,0/10 (484 304)
Premiera: 14 lipca 2008 (świat)
Box Office:: $185 000 000
Nagrody: 2 nagrody Oscar, 28 innych nagród i 48 nominacji
Mroczny Rycerz Powraca (2012):
Tytuł: Mroczny Rycerz Powraca / The Dark Knight Rises
Ocena: IMDB - 8,4/10 (1 436 254), Filmweb - 7,7/10 (287 134)
Premiera: 16 lipca 2012 (świat)
Box Office:: $250 000 000
Nagrody: Saturn oraz 39 nominacji

Opis:
Batman Begins (2005):
Historia milionera Bruce'a Wayne'a, który przemienia się w Batmana – postrach przestępców Gotham City.
The Dark Knight (2008):
Batman, z pomocą porucznika Gordona oraz prokuratora Harveya Denta, występuje przeciwko przerażającemu i nieobliczalnemu Jokerowi, który chce pogrążyć Gotham City w chaosie.
The Dark Knight Rises (2012):
Po ośmiu latach nieobecności Batman wraca, by uratować Gotham City przed zamaskowanym terrorystą Bane'em.

Etykieta: (Czasami należy się zalogować aby zobaczyć)


Obsada:
Kod: You are not allowed to view links. Register or Login
Christian Bale ... Bruce Wayne / Batman
Michael Caine ... Alfred
Liam Neeson ... Ducard
Katie Holmes ... Rachel Dawes
Gary Oldman ... Jim Gordon / Commissioner Gordon
Cillian Murphy ... Dr. Jonathan Crane / The Scarecrow
Tom Wilkinson ... Carmine Falcone
Rutger Hauer ... Earle
Ken Watanabe ... Ra's Al Ghul
Mark Boone Junior ... Flass
Linus Roache ... Thomas Wayne
Morgan Freeman ... Lucius Fox
Larry Holden ... Finch
Gerard Murphy ... Judge Faden
Colin McFarlane ... Loeb

Heath Ledger ... Joker
Aaron Eckhart ... Harvey Dent
Maggie Gyllenhaal ... Rachel
Curnen Monique Gabriela Curnen ... Ramirez
Ron Dean ... Wuertz
Chin Han ... Lau
Nestor Carbonell ... Mayor
Eric Roberts ... Maroni
Ritchie Coster ... Chechen
Anthony Michael Hall ... Mike Engel

Tom Hardy ... Bane
Joseph Gordon-Levitt ... Blake
Anne Hathaway ... Selina
Marion Cotillard ... Miranda
Matthew Modine ... Foley
Alon Aboutboul ... Dr. Pavel (as Alon Moni Aboutboul)
Ben Mendelsohn ... Daggett
Burn Gorman ... Stryver
Daniel Sunjata ... Captain Jones
Aidan Gillen ... CIA Op
Sam Kennard ... Special Ops Sergeant

Dane techniczne:
Kod: (Batman Begins (2005)) You are not allowed to view links. Register or Login
General
Unique ID                                : 30134603294451315037815668836121293187 (0x16ABB6A6EEF2B97D703A0F6212B1B183)
Complete name                            : Batman Begins (2005) - BluRay.1080p.HEVC.DTS.AC-3.60FPS.Multi.Lektor-PL.Napisy-PL.mkv
Format                                   : Matroska
Format version                           : Version 4
File size                                : 10.9 GiB
Duration                                 : 2 h 20 min
Overall bit rate mode                    : Variable
Overall bit rate                         : 11.2 Mb/s
Encoded date                             : UTC 2018-07-29 16:07:14
Writing application                      : mkvmerge v24.0.0 ('Beyond The Pale') 64-bit
Writing library                          : libebml v1.3.6 + libmatroska v1.4.9
Cover                                    : Yes
Attachments                              : cover.jpg

Video
ID                                       : 1
Format                                   : HEVC
Format/Info                              : High Efficiency Video Coding
Format profile                           : Main@L4@High
Codec ID                                 : V_MPEGH/ISO/HEVC
Duration                                 : 2 h 20 min
Bit rate                                 : 6 134 kb/s
Width                                    : 1 920 pixels
Height                                   : 800 pixels
Display aspect ratio                     : 2.40:1
Frame rate mode                          : Constant
Frame rate                               : 59.940 (60000/1001) FPS
Color space                              : YUV
Chroma subsampling                       : 4:2:0
Bit depth                                : 8 bits
Bits/(Pixel*Frame)                       : 0.067
Stream size                              : 6.00 GiB (55%)
Default                                  : Yes
Forced                                   : No

Audio #1
ID                                       : 3
Format                                   : DTS XLL
Format/Info                              : Digital Theater Systems
Commercial name                          : DTS-HD Master Audio
Codec ID                                 : A_DTS
Duration                                 : 2 h 20 min
Bit rate mode                            : Variable
Bit rate                                 : 4 382 kb/s
Channel(s)                               : 6 channels
Channel layout                           : C L R Ls Rs LFE
Sampling rate                            : 48.0 kHz
Frame rate                               : 93.750 FPS (512 SPF)
Bit depth                                : 24 bits
Compression mode                         : Lossless
Stream size                              : 4.29 GiB (39%)
Language                                 : English
Default                                  : Yes
Forced                                   : No

Audio #2
ID                                       : 4
Format                                   : AC-3
Format/Info                              : Audio Coding 3
Commercial name                          : Dolby Digital
Codec ID                                 : A_AC3
Duration                                 : 2 h 20 min
Bit rate mode                            : Constant
Bit rate                                 : 640 kb/s
Channel(s)                               : 6 channels
Channel layout                           : L R C LFE Ls Rs
Sampling rate                            : 48.0 kHz
Frame rate                               : 31.250 FPS (1536 SPF)
Bit depth                                : 16 bits
Compression mode                         : Lossy
Delay relative to video                  : 201 ms
Stream size                              : 641 MiB (6%)
Title                                    : Polski
Language                                 : Polish
Service kind                             : Complete Main
Default                                  : No
Forced                                   : No

Text
ID                                       : 2
Format                                   : UTF-8
Codec ID                                 : S_TEXT/UTF8
Codec ID/Info                            : UTF-8 Plain Text
Duration                                 : 2 h 9 min
Bit rate                                 : 51 b/s
Count of elements                        : 1583
Stream size                              : 49.3 KiB (0%)
Title                                    : Polski
Language                                 : Polish
Default                                  : Yes
Forced                                   : No

Menu
00:00:00.000                             : en:You're Practice
00:03:39.100                             : en:More Than Just a Man
00:07:31.133                             : en:What Do You Fear?
00:11:33.367                             : en:Tragedy
00:16:14.667                             : en:The Will to Act
00:19:43.067                             : en:This House
00:24:17.768                             : en:Not One of Your Good People
00:28:23.202                             : en:Carmine Falcone
00:31:23.702                             : en:Embrace Your Fear
00:35:51.835                             : en:Gotham Must Be Destroyed
00:38:22.335                             : en:Monastery Mayhem
00:41:12.535                             : en:Incorruptible Symbol
00:43:05.469                             : en:Nest of Bats
00:46:55.303                             : en:Welcome Home
00:49:40.904                             : en:Applied Sciences
00:53:23.071                             : en:Gordon's Visitor
00:55:52.071                             : en:Does It Come in Black?
00:57:58.972                             : en:Secrets of Scary People
01:03:28.439                             : en:Rattle the Cages
01:05:49.040                             : en:Missing Weapon
01:08:35.040                             : en:More Inside
01:11:21.707                             : en:Crane's Mask
01:13:15.041                             : en:Do I Look Like a Cop?
01:15:04.208                             : en:Lighten Up
01:19:46.109                             : en:Work to Do
01:23:49.576                             : en:Arkham's Basement Secrets
01:28:57.676                             : en:Winged Backup
01:32:31.243                             : en:Tumbler on the Roof
01:37:43.276                             : en:The Monster of Yours
01:40:27.743                             : en:Dual Identities
01:45:03.243                             : en:Purging Fire
01:49:25.577                             : en:Inferno Rescue
01:51:22.744                             : en:Spread the Word: Panic
01:54:42.712                             : en:What Defines Me
01:58:04.112                             : en:Catching a Train
02:01:48.212                             : en:Not Kill But Not Save
02:04:53.879                             : en:New Owner
02:05:59.646                             : en:This Is Your Mask
02:09:10.980                             : en:Calling Card
02:10:49.447                             : en:End Credits
Kod: (The Dark Knight (2008)) You are not allowed to view links. Register or Login
General
Unique ID                                : 308050683873510348619865415626610364549 (0xE7C0675559BD5FCBE33C0894657AD085)
Complete name                            : The Dark Knight (2008) - BluRay.1080p.HEVC.DTS.AC-3.60FPS.Multi.Lektor-PL.Napisy-PL.mkv
Format                                   : Matroska
Format version                           : Version 4
File size                                : 9.56 GiB
Duration                                 : 2 h 32 min
Overall bit rate mode                    : Variable
Overall bit rate                         : 8 989 kb/s
Encoded date                             : UTC 2018-07-30 15:59:06
Writing application                      : mkvmerge v24.0.0 ('Beyond The Pale') 64-bit
Writing library                          : libebml v1.3.6 + libmatroska v1.4.9
Cover                                    : Yes
Attachments                              : cover.jpg

Video
ID                                       : 3
Format                                   : HEVC
Format/Info                              : High Efficiency Video Coding
Format profile                           : Main@L4.1@Main
Codec ID                                 : V_MPEGH/ISO/HEVC
Duration                                 : 2 h 32 min
Bit rate                                 : 4 721 kb/s
Width                                    : 1 920 pixels
Height                                   : 1 080 pixels
Display aspect ratio                     : 16:9
Frame rate mode                          : Constant
Frame rate                               : 59.940 (59940/1000) FPS
Original frame rate                      : 59.000 FPS
Color space                              : YUV
Chroma subsampling                       : 4:2:0
Bit depth                                : 8 bits
Bits/(Pixel*Frame)                       : 0.038
Stream size                              : 5.02 GiB (53%)
Default                                  : Yes
Forced                                   : No

Audio #1
ID                                       : 1
Format                                   : DTS XLL
Format/Info                              : Digital Theater Systems
Commercial name                          : DTS-HD Master Audio
Codec ID                                 : A_DTS
Duration                                 : 2 h 32 min
Bit rate mode                            : Variable
Bit rate                                 : 3 814 kb/s
Channel(s)                               : 6 channels
Channel layout                           : C L R Ls Rs LFE
Sampling rate                            : 48.0 kHz
Frame rate                               : 93.750 FPS (512 SPF)
Bit depth                                : 24 bits
Compression mode                         : Lossless
Stream size                              : 4.06 GiB (42%)
Language                                 : English
Default                                  : Yes
Forced                                   : No

Audio #2
ID                                       : 2
Format                                   : AC-3
Format/Info                              : Audio Coding 3
Commercial name                          : Dolby Digital
Codec ID                                 : A_AC3
Duration                                 : 2 h 32 min
Bit rate mode                            : Constant
Bit rate                                 : 448 kb/s
Channel(s)                               : 6 channels
Channel layout                           : L R C LFE Ls Rs
Sampling rate                            : 48.0 kHz
Frame rate                               : 31.250 FPS (1536 SPF)
Bit depth                                : 16 bits
Compression mode                         : Lossy
Stream size                              : 488 MiB (5%)
Title                                    : Polski
Language                                 : Polish
Service kind                             : Complete Main
Default                                  : No
Forced                                   : No

Text
ID                                       : 4
Format                                   : UTF-8
Codec ID                                 : S_TEXT/UTF8
Codec ID/Info                            : UTF-8 Plain Text
Duration                                 : 2 h 23 min
Bit rate                                 : 65 b/s
Count of elements                        : 1746
Stream size                              : 69.2 KiB (0%)
Title                                    : Polski
Language                                 : Polish
Default                                  : Yes
Forced                                   : No

Menu #1
00:00:00.000                             : en:Chapter 1
00:06:25.927                             : en:Chapter 2
00:10:36.135                             : en:Chapter 3
00:13:52.540                             : en:Chapter 4
00:17:54.156                             : en:Chapter 5
00:21:39.298                             : en:Chapter 6
00:26:09.985                             : en:Chapter 7
00:29:36.232                             : en:Chapter 8
00:31:42.442                             : en:Chapter 9
00:37:49.016                             : en:Chapter 10
00:43:34.028                             : en:Chapter 11
00:46:39.505                             : en:Chapter 12
00:48:57.726                             : en:Chapter 13
00:53:19.404                             : en:Chapter 14
00:57:15.598                             : en:Chapter 15
00:59:26.312                             : en:Chapter 16
01:03:59.544                             : en:Chapter 17
01:08:23.516                             : en:Chapter 18
01:10:48.285                             : en:Chapter 19
01:14:24.877                             : en:Chapter 20
01:18:05.597                             : en:Chapter 21
01:22:22.395                             : en:Chapter 22
01:24:48.541                             : en:Chapter 23
01:30:48.401                             : en:Chapter 24
01:34:04.930                             : en:Chapter 25
01:39:57.741                             : en:Chapter 26
01:42:05.452                             : en:Chapter 27
01:44:59.876                             : en:Chapter 28
01:47:00.831                             : en:Chapter 29
01:51:09.871                             : en:Chapter 30
01:54:14.597                             : en:Chapter 31
01:57:03.975                             : en:Chapter 32
02:00:14.207                             : en:Chapter 33
02:03:37.535                             : en:Chapter 34
02:09:07.573                             : en:Chapter 35
02:12:27.272                             : en:Chapter 36
02:15:22.739                             : en:Chapter 37
02:19:58.640                             : en:Chapter 38
02:24:26.658                             : en:Chapter 39

Menu #2
00:00:00.000                             : en:Robbery Gone Stranger
00:06:23.966                             : en:Intimidate Mode
00:10:36.260                             : en:Unknown Limits
00:13:52.581                             : en:Last Game in Town
00:17:54.198                             : en:Protector's Mantle
00:21:39.339                             : en:Kill the Batman
00:26:10.026                             : en:Hong Kong Holiday
00:29:36.274                             : en:Why so Serious?
00:31:42.483                             : en:Landing Lau
00:37:49.058                             : en:Men of their Word
00:43:34.069                             : en:Hero with a Face
00:46:39.546                             : en:Somebody with Access
00:48:57.768                             : en:Tonight's Entertainment
00:53:19.446                             : en:Watch the World Burn
00:57:15.640                             : en:Your Plan is Blackmail?
00:59:26.354                             : en:Dishonour Guard
01:03:59.627                             : en:No Rules
01:08:23.557                             : en:Right Choice
01:10:48.327                             : en:I am the Batman
01:14:24.918                             : en:Trip to Country
01:18:05.639                             : en:Bat-pod Faceoff
01:22:22.437                             : en:We Got Him
01:24:48.583                             : en:Good Cop, Bad Cop
01:30:48.442                             : en:Two-way Race
01:34:04.972                             : en:Burned Down
01:39:57.783                             : en:Harvey Two-Face
01:42:05.494                             : en:Better Class of Criminal
01:44:59.918                             : en:Watch Out
01:47:00.872                             : en:Agent of Chaos
01:51:09.913                             : en:Hospital Boom
01:54:14.639                             : en:Too Much Power
01:57:04.017                             : en:Unlucky
02:00:14.248                             : en:Ferry Scary
02:03:37.576                             : en:Prewitt Building Siege
02:09:07.614                             : en:Verge of Fireworks
02:12:27.314                             : en:Battle for Gotham's Soul
02:15:22.781                             : en:One Pointing the Gun
02:19:58.681                             : en:Dark Knight
02:24:26.658                             : en:End Credits
Kod: (The Dark Knight Rises (2012)) You are not allowed to view links. Register or Login
General
Unique ID                                : 62441127095648631387701817372012347902 (0x2EF9B940B2F816BA6FCB90E59C8A81FE)
Complete name                            : The Dark Knight Rises (2012) - BluRay.1080p.HEVC.DTS.AC-3.60FPS.Multi.Lektor-PL.Napisy-PL.mkv
Format                                   : Matroska
Format version                           : Version 4
File size                                : 13.3 GiB
Duration                                 : 2 h 44 min
Overall bit rate mode                    : Variable
Overall bit rate                         : 11.6 Mb/s
Encoded date                             : UTC 2018-07-29 18:12:21
Writing application                      : mkvmerge v24.0.0 ('Beyond The Pale') 64-bit
Writing library                          : libebml v1.3.6 + libmatroska v1.4.9
Cover                                    : Yes
Attachments                              : cover.jpg

Video
ID                                       : 3
Format                                   : HEVC
Format/Info                              : High Efficiency Video Coding
Format profile                           : Main@L4@High
Codec ID                                 : V_MPEGH/ISO/HEVC
Duration                                 : 2 h 44 min
Bit rate                                 : 7 085 kb/s
Width                                    : 1 920 pixels
Height                                   : 1 080 pixels
Display aspect ratio                     : 16:9
Frame rate mode                          : Constant
Frame rate                               : 59.940 (60000/1001) FPS
Color space                              : YUV
Chroma subsampling                       : 4:2:0
Bit depth                                : 8 bits
Bits/(Pixel*Frame)                       : 0.057
Stream size                              : 8.14 GiB (61%)
Default                                  : Yes
Forced                                   : No

Audio #1
ID                                       : 1
Format                                   : DTS XLL
Format/Info                              : Digital Theater Systems
Commercial name                          : DTS-HD Master Audio
Codec ID                                 : A_DTS
Duration                                 : 2 h 44 min
Bit rate mode                            : Variable
Bit rate                                 : 4 018 kb/s
Channel(s)                               : 6 channels
Channel layout                           : C L R Ls Rs LFE
Sampling rate                            : 48.0 kHz
Frame rate                               : 93.750 FPS (512 SPF)
Bit depth                                : 24 bits
Compression mode                         : Lossless
Stream size                              : 4.62 GiB (35%)
Language                                 : English
Default                                  : Yes
Forced                                   : No

Audio #2
ID                                       : 2
Format                                   : AC-3
Format/Info                              : Audio Coding 3
Commercial name                          : Dolby Digital
Codec ID                                 : A_AC3
Duration                                 : 2 h 44 min
Bit rate mode                            : Constant
Bit rate                                 : 448 kb/s
Channel(s)                               : 6 channels
Channel layout                           : L R C LFE Ls Rs
Sampling rate                            : 48.0 kHz
Frame rate                               : 31.250 FPS (1536 SPF)
Bit depth                                : 16 bits
Compression mode                         : Lossy
Stream size                              : 527 MiB (4%)
Title                                    : Polski
Language                                 : Polish
Service kind                             : Complete Main
Default                                  : No
Forced                                   : No

Text
ID                                       : 4
Format                                   : UTF-8
Codec ID                                 : S_TEXT/UTF8
Codec ID/Info                            : UTF-8 Plain Text
Duration                                 : 2 h 43 min
Bit rate                                 : 45 b/s
Count of elements                        : 1760
Stream size                              : 54.4 KiB (0%)
Title                                    : Polski
Language                                 : Polish
Default                                  : Yes
Forced                                   : No

Menu
00:00:00.000                             : en:Chapter 1
00:09:02.833                             : en:Chapter 2
00:19:08.522                             : en:Chapter 3
00:30:15.855                             : en:Chapter 4
00:41:08.799                             : en:Chapter 5
00:51:09.524                             : en:Chapter 6
01:00:29.667                             : en:Chapter 7
01:10:04.033                             : en:Chapter 8
01:20:13.475                             : en:Chapter 9
01:31:00.580                             : en:Chapter 10
01:39:24.291                             : en:Chapter 11
01:48:58.490                             : en:Chapter 12
02:00:21.589                             : en:Chapter 13
02:10:47.673                             : en:Chapter 14
02:19:12.635                             : en:Chapter 15
02:30:14.630                             : en:Chapter 16
02:36:50.526                             : en:Chapter 17
02:44:32.529                             : en:Chapter 18
02:44:32.904                             : en:Chapter 19
02:45:43.933                             : en:Chapter 20
02:47:14.482                             : en:Chapter 21
02:47:43.344                             : en:Chapter 22
02:49:27.448                             : en:Chapter 23
02:49:52.724                             : en:Chapter 24
02:50:29.469                             : en:Chapter 25
02:50:52.575                             : en:Chapter 26
02:51:34.742                             : en:Chapter 27
02:51:47.755                             : en:Chapter 28
02:52:48.983                             : en:Chapter 29
02:53:12.506                             : en:Chapter 30
02:53:45.498                             : en:Chapter 31
02:54:33.587                             : en:Chapter 32
02:54:46.684                             : en:Chapter 33
02:55:07.746                             : en:Chapter 34
02:55:19.758                             : en:Chapter 35
02:55:31.770                             : en:Chapter 36
02:55:52.791                             : en:Chapter 37
02:56:04.803                             : en:Chapter 38
02:56:16.815                             : en:Chapter 39
02:56:28.869                             : en:Chapter 40
02:56:40.923                             : en:Chapter 41
02:56:52.935                             : en:Chapter 42
02:57:04.947                             : en:Chapter 43
02:57:16.959                             : en:Chapter 44

Podgląd:

Download:
Sorry but you are not allowed to view spoiler contents.

You are not allowed to view links. Register or Login
You are not allowed to view links. Register or Login

Warezy:
Sorry but you are not allowed to view spoiler contents.
« Ostatnia zmiana: Styczeń 31, 2020, 05:34:29 pm wysłana przez dominikk26 »