TryHackX - Forum

Rick i Morty / Rick and Morty (2013 - 2022) [51,08 GB] [DPNP] [AVC 4.5 - 12.4 Mb/s] [AAC LC 207 kb/s] [AC-3 192 - 640 kb/s]

Offline TryHackX

  • Administrator
  • Użytkownik
  • *****
    • Wiadomości: 98
    • Reputacja +0/-0
    • Zobacz profil
Rick i Morty / Rick and Morty (2013 - 2022) [51,08 GB] [DPNP] [AVC 4.5 - 12.4 Mb/s] [AAC LC  207 kb/s] [AC-3 192 - 640 kb/s]

Szybki podgląd:
Polski tytuł: Rick i Morty
Angielski tytuł: Rick and Morty
Rok premiery: 2013 - 2022
Rozmiar: 51,08 GB, Czas trwania: ~22 min, Typ wydania: Web-DL
Informacje językowe: Dźwięk dubbing Polski, Napisy Polskie.
Ilość odcinków: 68
Przepraszamy, ale nie możesz zobaczyć ukrytej zawartości. Musisz się zalogować, aby zobaczyć tę zawartość.

Writing library: x264 core 133 + Lavc58.134.100 aac oraz Lavf58.76.100 + Lavc58.134.100 ac3

Format: AVC, Codec ID: V_MPEG4/ISO/AVC, Bit rate: ~4 700 kb/s, Maximum bit rate: ~12.4 Mb/s, Original frame rate: 23.976 FPS
Width: 1 920 pixels, Height: 1 080 pixels, Display aspect ratio: 16:9, Bit depth: 8 bits, Stream size: ~750 MiB (~95%)

Audio: #1, Format: AAC LC, Codec ID: 2 / A_AAC-2, Bit rate: 207 kb/s, Sampling rate: 44.1 kHz
Language: Polish, Channel(s): 2 channels, Channel layout: L R, Stream size: 32.9 MiB (5%)

Audio: #2, Format: AC-3, Codec ID: A_AC3, Bit rate: 640 kb/s, Sampling rate: 48.0 kHz, Bit depth: 32 bits
Language: Polish, Channel(s): 6 channels, Channel layout: L R C LFE Ls Rs, Stream size: 105 MiB (13%)

Audio: #3, Format: AC-3, Codec ID: A_AC3, Bit rate: 192 kb/s, Sampling rate: 48.0 kHz, Bit depth: 32 bits
Language: Polish, Channel(s): 2 channels, Channel layout: L R, Stream size: 30.7 MiB (4%)

Text: #1, Language: Polish, Format: ASS, Codec ID: S_TEXT/ASS

Informacje:
Tytuł: Rick i Morty / Rick and Morty
Ocena: IMDB - 9,1/10 (549 321), Filmweb - 8,6/10 (107 598)
Twórcy: Dan Harmon, Justin Roiland
Gatunek: Animowany / Przygodowy
Produkcja: USA
Premiera: 2 listopada 2013 (świat)

Opis:
Ekscentryczny naukowiec Rick udaje się ze swoim wnukiem Mortym do najdziwniejszych miejsc w galaktyce i alternatywnych rzeczywistości.

Etykieta:

Obsada:
Justin Roiland
Chris Parnell
Spencer Grammer
Sarah Chalke
Kari Wahlgren
Dan Harmon
Tom Kenny
Maurice LaMarche
Brandon Johnson
Ryan Ridley
Cassie Steele
Phil Hendrie
Yôhei Tadano
Keisuke Chiba
Manabu Muraji

Obsada Polska:
Modest Ruciński
Michał Głowacki
Agnieszka Kudelska
Jacek Bończyk
Klementyna Umer
Joanna Brodzka
Grzegorz Kowalczyk
Natalia Kudelska
Julia Łukowiak
Katarzyna Michalska
Maksymilian Młynarski
Mateusz Mosiewicz
Michał Muzyka
Przemysław Niedzielski
Michał Pawlik
Krzysztof Rogucki
Dominika Sell
Dominika Kachlik

Informacje dodatkowe:
Wstawka ta zawiera pełny sezon od I do VI. W każdym z odcinków wzmocniono lub znormalizowano dźwięk aby był głośniejszy, zachowano oryginalne kodeki i bitrate. Usunięto wszelkie reklamowe metadane. Dodano odcinki ekstra.

Dane techniczne:
Kod: (Season I) Nie masz uprawnień do przeglądania linków. Zarejestruj lub Zaloguj
General
Unique ID                                : 103886200597419956598122279722347015137 (0x4E27C123E45C8C9E1A6E8D5C61D22BE1)
Complete name                            : Rick and Morty S01E01 (2013 - 2014) [1080p 8 bits] [AVC] [AAC] [WEB-DL] [DPNP].mkv
Format                                   : Matroska
Format version                           : Version 4
File size                                : 701 MiB
Duration                                 : 22 min 1 s
Overall bit rate                         : 4 448 kb/s
Movie name                               : Rick and Morty
Writing application                      : Lavf58.76.100
Writing library                          : Lavf58.76.100
ErrorDetectionType                       : Per level 1

Video
ID                                       : 1
Format                                   : AVC
Format/Info                              : Advanced Video Codec
Format profile                           : High@L4
Format settings                          : CABAC / 4 Ref Frames
Format settings, CABAC                   : Yes
Format settings, Reference frames        : 4 frames
Codec ID                                 : V_MPEG4/ISO/AVC
Duration                                 : 22 min 1 s
Bit rate                                 : 4 500 kb/s
Width                                    : 1 920 pixels
Height                                   : 1 080 pixels
Display aspect ratio                     : 16:9
Frame rate mode                          : Constant
Frame rate                               : 23.976 (23976/1000) FPS
Color space                              : YUV
Chroma subsampling                       : 4:2:0
Bit depth                                : 8 bits
Scan type                                : Progressive
Bits/(Pixel*Frame)                       : 0.091
Stream size                              : 680 MiB (97%)
Writing library                          : x264 core 133
Encoding settings                        : cabac=1 / ref=3 / deblock=1:0:0 / analyse=0x3:0x113 / me=hex / subme=7 / psy=1 / psy_rd=1.00:0.00 / mixed_ref=1 / me_range=16 / chroma_me=1 / trellis=1 / 8x8dct=1 / cqm=0 / deadzone=21,11 / fast_pskip=1 / chroma_qp_offset=-2 / threads=4 / lookahead_threads=1 / sliced_threads=0 / nr=0 / decimate=1 / interlaced=0 / bluray_compat=0 / constrained_intra=0 / bframes=3 / b_pyramid=2 / b_adapt=1 / b_bias=0 / direct=1 / weightb=1 / open_gop=0 / weightp=2 / keyint=250 / keyint_min=23 / scenecut=40 / intra_refresh=0 / rc_lookahead=40 / rc=abr / mbtree=1 / bitrate=4500 / ratetol=1.0 / qcomp=0.60 / qpmin=0 / qpmax=69 / qpstep=4 / ip_ratio=1.40 / aq=1:1.00
Language                                 : English
Default                                  : Yes
Forced                                   : No

Audio
ID                                       : 2
Format                                   : AAC LC
Format/Info                              : Advanced Audio Codec Low Complexity
Codec ID                                 : 2 / A_AAC-2
Duration                                 : 22 min 1 s
Bit rate                                 : 207 kb/s
Channel(s)                               : 2 channels
Channel layout                           : L R
Sampling rate                            : 44.1 kHz
Frame rate                               : 43.066 FPS (1024 SPF)
Compression mode                         : Lossy
Delay relative to video                  : -23 ms
Stream size                              : 32.7 MiB (5%)
Writing library                          : Lavc58.134.100 aac
Language                                 : Polish
Default                                  : Yes
Forced                                   : Yes

Text
ID                                       : 3
Format                                   : ASS
Codec ID                                 : S_TEXT/ASS
Codec ID/Info                            : Advanced Sub Station Alpha
Duration                                 : 4 s 163 ms
Bit rate                                 : 29 b/s
Frame rate                               : 0.240 FPS
Count of elements                        : 1
Compression mode                         : Lossless
Stream size                              : 15.0 Bytes (0%)
Writing library                          : Lavc58.134.100 ssa
Language                                 : Polish
Default                                  : Yes
Forced                                   : Yes
Kod: (Season II) Nie masz uprawnień do przeglądania linków. Zarejestruj lub Zaloguj
General
Unique ID                                : 111047658942457657427375157123250602442 (0x538B004C18A9D3942CD571139FBB41CA)
Complete name                            : Rick and Morty S02E01 (2015) [1080p 8 bits] [AVC] [AAC] [WEB-DL] [DPNP].mkv
Format                                   : Matroska
Format version                           : Version 4
File size                                : 757 MiB
Duration                                 : 23 min 1 s
Overall bit rate                         : 4 598 kb/s
Movie name                               : Rick and Morty
Writing application                      : Lavf58.76.100
Writing library                          : Lavf58.76.100
ErrorDetectionType                       : Per level 1

Video
ID                                       : 1
Format                                   : AVC
Format/Info                              : Advanced Video Codec
Format profile                           : High@L4
Format settings                          : CABAC / 4 Ref Frames
Format settings, CABAC                   : Yes
Format settings, Reference frames        : 4 frames
Codec ID                                 : V_MPEG4/ISO/AVC
Duration                                 : 22 min 51 s
Bit rate                                 : 4 500 kb/s
Width                                    : 1 920 pixels
Height                                   : 1 080 pixels
Display aspect ratio                     : 16:9
Frame rate mode                          : Constant
Frame rate                               : 23.976 (23976/1000) FPS
Color space                              : YUV
Chroma subsampling                       : 4:2:0
Bit depth                                : 8 bits
Scan type                                : Progressive
Bits/(Pixel*Frame)                       : 0.091
Stream size                              : 735 MiB (97%)
Writing library                          : x264 core 133
Encoding settings                        : cabac=1 / ref=3 / deblock=1:0:0 / analyse=0x3:0x113 / me=hex / subme=7 / psy=1 / psy_rd=1.00:0.00 / mixed_ref=1 / me_range=16 / chroma_me=1 / trellis=1 / 8x8dct=1 / cqm=0 / deadzone=21,11 / fast_pskip=1 / chroma_qp_offset=-2 / threads=4 / lookahead_threads=1 / sliced_threads=0 / nr=0 / decimate=1 / interlaced=0 / bluray_compat=0 / constrained_intra=0 / bframes=3 / b_pyramid=2 / b_adapt=1 / b_bias=0 / direct=1 / weightb=1 / open_gop=0 / weightp=2 / keyint=250 / keyint_min=23 / scenecut=40 / intra_refresh=0 / rc_lookahead=40 / rc=abr / mbtree=1 / bitrate=4500 / ratetol=1.0 / qcomp=0.60 / qpmin=0 / qpmax=69 / qpstep=4 / ip_ratio=1.40 / aq=1:1.00
Default                                  : Yes
Forced                                   : No

Audio
ID                                       : 2
Format                                   : AAC LC
Format/Info                              : Advanced Audio Codec Low Complexity
Codec ID                                 : 2 / A_AAC-2
Duration                                 : 23 min 1 s
Bit rate                                 : 205 kb/s
Channel(s)                               : 2 channels
Channel layout                           : L R
Sampling rate                            : 44.1 kHz
Frame rate                               : 43.066 FPS (1024 SPF)
Compression mode                         : Lossy
Delay relative to video                  : -23 ms
Stream size                              : 33.8 MiB (4%)
Writing library                          : Lavc58.134.100 aac
Language                                 : Polish
Default                                  : Yes
Forced                                   : Yes

Text
ID                                       : 3
Format                                   : ASS
Codec ID                                 : S_TEXT/ASS
Codec ID/Info                            : Advanced Sub Station Alpha
Duration                                 : 4 s 163 ms
Bit rate                                 : 29 b/s
Frame rate                               : 0.240 FPS
Count of elements                        : 1
Compression mode                         : Lossless
Stream size                              : 15.0 Bytes (0%)
Writing library                          : Lavc58.134.100 ssa
Language                                 : Polish
Default                                  : Yes
Forced                                   : Yes

Menu
00:00:00.000                             : :00:00:00.000
00:02:29.298                             : :00:02:29.358
00:03:01.121                             : :00:03:01.181
00:11:13.446                             : :00:11:13.506
00:21:31.897                             : :00:21:31.957
00:22:02.845                             : :00:22:02.905
Kod: (Season III) Nie masz uprawnień do przeglądania linków. Zarejestruj lub Zaloguj
General
Unique ID                                : 238659836813515304956842150542322943399 (0xB38C366E89A936E7186A3D60F4FFC5A7)
Complete name                            : Rick and Morty S03E01 (2017 - 2018) [1080p 8 bits] [AVC] [AAC] [WEB-DL] [DPNP].mkv
Format                                   : Matroska
Format version                           : Version 4
File size                                : 690 MiB
Duration                                 : 23 min 43 s
Overall bit rate                         : 4 067 kb/s
Movie name                               : Rick and Morty
Writing application                      : Lavf58.76.100
Writing library                          : Lavf58.76.100
ErrorDetectionType                       : Per level 1

Video
ID                                       : 1
Format                                   : AVC
Format/Info                              : Advanced Video Codec
Format profile                           : High@L4
Format settings                          : CABAC / 4 Ref Frames
Format settings, CABAC                   : Yes
Format settings, Reference frames        : 4 frames
Codec ID                                 : V_MPEG4/ISO/AVC
Duration                                 : 23 min 34 s
Bit rate                                 : 4 000 kb/s
Width                                    : 1 920 pixels
Height                                   : 1 080 pixels
Display aspect ratio                     : 16:9
Frame rate mode                          : Constant
Frame rate                               : 23.976 (23976/1000) FPS
Color space                              : YUV
Chroma subsampling                       : 4:2:0
Bit depth                                : 8 bits
Scan type                                : Progressive
Bits/(Pixel*Frame)                       : 0.080
Stream size                              : 668 MiB (97%)
Writing library                          : x264 core 133
Encoding settings                        : cabac=1 / ref=3 / deblock=1:0:0 / analyse=0x3:0x113 / me=hex / subme=7 / psy=1 / psy_rd=1.00:0.00 / mixed_ref=1 / me_range=16 / chroma_me=1 / trellis=1 / 8x8dct=1 / cqm=0 / deadzone=21,11 / fast_pskip=1 / chroma_qp_offset=-2 / threads=4 / lookahead_threads=1 / sliced_threads=0 / nr=0 / decimate=1 / interlaced=0 / bluray_compat=0 / constrained_intra=0 / bframes=3 / b_pyramid=2 / b_adapt=1 / b_bias=0 / direct=1 / weightb=1 / open_gop=0 / weightp=2 / keyint=250 / keyint_min=23 / scenecut=40 / intra_refresh=0 / rc_lookahead=40 / rc=abr / mbtree=1 / bitrate=4000 / ratetol=1.0 / qcomp=0.60 / qpmin=0 / qpmax=69 / qpstep=4 / ip_ratio=1.40 / aq=1:1.00
Language                                 : English
Default                                  : Yes
Forced                                   : No

Audio
ID                                       : 2
Format                                   : AAC LC
Format/Info                              : Advanced Audio Codec Low Complexity
Codec ID                                 : 2 / A_AAC-2
Duration                                 : 23 min 43 s
Bit rate                                 : 200 kb/s
Channel(s)                               : 2 channels
Channel layout                           : L R
Sampling rate                            : 44.1 kHz
Frame rate                               : 43.066 FPS (1024 SPF)
Compression mode                         : Lossy
Delay relative to video                  : -23 ms
Stream size                              : 33.9 MiB (5%)
Writing library                          : Lavc58.134.100 aac
Language                                 : Polish
Default                                  : Yes
Forced                                   : Yes

Text
ID                                       : 3
Format                                   : ASS
Codec ID                                 : S_TEXT/ASS
Codec ID/Info                            : Advanced Sub Station Alpha
Duration                                 : 4 s 163 ms
Bit rate                                 : 29 b/s
Frame rate                               : 0.240 FPS
Count of elements                        : 1
Compression mode                         : Lossless
Stream size                              : 15.0 Bytes (0%)
Writing library                          : Lavc58.134.100 ssa
Language                                 : Polish
Default                                  : Yes
Forced                                   : Yes
Kod: (Season IV) Nie masz uprawnień do przeglądania linków. Zarejestruj lub Zaloguj
General
Unique ID                                : 155440002957725604494769233541900289422 (0x74F0A7D70D77E6299144CFB7AFC0458E)
Complete name                            : Rick and Morty S04E01 (2019 - 2020) [1080p 8 bits] [AVC] [AC-3] [WEB-DL] [DPNP].mkv
Format                                   : Matroska
Format version                           : Version 4
File size                                : 818 MiB
Duration                                 : 22 min 51 s
Overall bit rate mode                    : Variable
Overall bit rate                         : 5 004 kb/s
Movie name                               : Rick and Morty
Writing application                      : Lavf58.76.100
Writing library                          : Lavf58.76.100
ErrorDetectionType                       : Per level 1

Video
ID                                       : 1
Format                                   : AVC
Format/Info                              : Advanced Video Codec
Format profile                           : Main@L4
Format settings                          : CABAC / 3 Ref Frames
Format settings, CABAC                   : Yes
Format settings, Reference frames        : 3 frames
Codec ID                                 : V_MPEG4/ISO/AVC
Duration                                 : 22 min 51 s
Bit rate mode                            : Variable
Bit rate                                 : 4 420 kb/s
Maximum bit rate                         : 6 630 kb/s
Width                                    : 1 920 pixels
Height                                   : 1 080 pixels
Display aspect ratio                     : 16:9
Frame rate mode                          : Constant
Frame rate                               : 23.976 (24000/1001) FPS
Color space                              : YUV
Chroma subsampling                       : 4:2:0
Bit depth                                : 8 bits
Scan type                                : Progressive
Bits/(Pixel*Frame)                       : 0.089
Stream size                              : 713 MiB (87%)
Writing library                          : x264 core 148 r2715 7e75228
Encoding settings                        : cabac=1 / ref=3 / deblock=1:0:0 / analyse=0x1:0x111 / me=umh / subme=10 / psy=1 / psy_rd=1.00:0.00 / mixed_ref=1 / me_range=24 / chroma_me=1 / trellis=2 / 8x8dct=0 / cqm=0 / deadzone=21,11 / fast_pskip=1 / chroma_qp_offset=-2 / threads=8 / lookahead_threads=1 / sliced_threads=0 / nr=0 / decimate=1 / interlaced=0 / bluray_compat=0 / stitchable=1 / constrained_intra=0 / bframes=2 / b_pyramid=0 / b_adapt=2 / b_bias=0 / direct=3 / weightb=1 / open_gop=0 / weightp=2 / keyint=250 / keyint_min=23 / scenecut=0 / intra_refresh=0 / rc_lookahead=48 / rc=2pass / mbtree=1 / bitrate=4420 / ratetol=1.0 / qcomp=0.50 / qpmin=6 / qpmax=51 / qpstep=4 / cplxblur=20.0 / qblur=0.5 / vbv_maxrate=6630 / vbv_bufsize=8840 / nal_hrd=vbr / filler=0 / ip_ratio=1.40 / aq=1:1.00
Default                                  : Yes
Forced                                   : No

Audio
ID                                       : 2
Format                                   : AC-3
Format/Info                              : Audio Coding 3
Commercial name                          : Dolby Digital
Codec ID                                 : A_AC3
Duration                                 : 22 min 51 s
Bit rate mode                            : Constant
Bit rate                                 : 640 kb/s
Channel(s)                               : 6 channels
Channel layout                           : L R C LFE Ls Rs
Sampling rate                            : 48.0 kHz
Frame rate                               : 31.250 FPS (1536 SPF)
Bit depth                                : 32 bits
Compression mode                         : Lossy
Stream size                              : 105 MiB (13%)
Writing library                          : Lavc58.134.100 ac3
Service kind                             : Complete Main
Default                                  : Yes
Forced                                   : No

Text
ID                                       : 3
Format                                   : ASS
Codec ID                                 : S_TEXT/ASS
Codec ID/Info                            : Advanced Sub Station Alpha
Duration                                 : 22 min 33 s
Bit rate                                 : 3 b/s
Frame rate                               : 0.014 FPS
Count of elements                        : 19
Compression mode                         : Lossless
Stream size                              : 653 Bytes (0%)
Writing library                          : Lavc58.134.100 ssa
Language                                 : Polish
Default                                  : Yes
Forced                                   : Yes
Kod: (Season V) Nie masz uprawnień do przeglądania linków. Zarejestruj lub Zaloguj
General
Unique ID                                : 41895740103779402634333491974941307813 (0x1F84D3776926B18A921ED11495B9F3A5)
Complete name                            : Rick and Morty S05E01 (2021) [1080p 8 bits] [AVC] [AC-3] [WEB-DL] [DPNP].mkv
Format                                   : Matroska
Format version                           : Version 4
File size                                : 757 MiB
Duration                                 : 22 min 19 s
Overall bit rate mode                    : Constant
Overall bit rate                         : 4 738 kb/s
Movie name                               : Rick and Morty
Writing application                      : Lavf58.76.100
Writing library                          : Lavf58.76.100
ErrorDetectionType                       : Per level 1

Video
ID                                       : 1
Format                                   : AVC
Format/Info                              : Advanced Video Codec
Format profile                           : High@L4
Format settings                          : CABAC / 4 Ref Frames
Format settings, CABAC                   : Yes
Format settings, Reference frames        : 4 frames
Codec ID                                 : V_MPEG4/ISO/AVC
Duration                                 : 22 min 19 s
Bit rate mode                            : Constant
Bit rate                                 : 4 543 kb/s
Nominal bit rate                         : 10 000 kb/s
Width                                    : 1 920 pixels
Height                                   : 1 080 pixels
Display aspect ratio                     : 16:9
Frame rate mode                          : Variable
Frame rate                               : 23.976 FPS
Color space                              : YUV
Chroma subsampling                       : 4:2:0
Bit depth                                : 8 bits
Scan type                                : Progressive
Bits/(Pixel*Frame)                       : 0.091
Stream size                              : 725 MiB (96%)
Language                                 : English
Default                                  : Yes
Forced                                   : No
Color range                              : Limited
Color primaries                          : BT.709
Transfer characteristics                 : BT.709
Matrix coefficients                      : BT.709

Audio
ID                                       : 2
Format                                   : AC-3
Format/Info                              : Audio Coding 3
Commercial name                          : Dolby Digital
Codec ID                                 : A_AC3
Duration                                 : 22 min 19 s
Bit rate mode                            : Constant
Bit rate                                 : 192 kb/s
Channel(s)                               : 2 channels
Channel layout                           : L R
Sampling rate                            : 48.0 kHz
Frame rate                               : 31.250 FPS (1536 SPF)
Bit depth                                : 32 bits
Compression mode                         : Lossy
Stream size                              : 30.7 MiB (4%)
Writing library                          : Lavc58.134.100 ac3
Language                                 : Polish
Service kind                             : Complete Main
Default                                  : Yes
Forced                                   : No
Kod: (Season VI) Nie masz uprawnień do przeglądania linków. Zarejestruj lub Zaloguj
General
Unique ID                                : 99014116580154921823348280518213842149 (0x4A7D6CDA294971245169FC87C46F34E5)
Complete name                            : Rick and Morty S06E05 (2022) [1080p 8 bits] [AVC] [AC-3] [WEB-DL] [DPNP].mkv
Format                                   : Matroska
Format version                           : Version 4
File size                                : 1.38 GiB
Duration                                 : 22 min 37 s
Overall bit rate mode                    : Variable
Overall bit rate                         : 8 704 kb/s
Frame rate                               : 23.976 FPS
Encoded date                             : 2023-05-02 14:48:59 UTC
Writing application                      : mkvmerge v64.0.0 ('Willows') 64-bit
Writing library                          : libebml v1.4.2 + libmatroska v1.6.4

Video
ID                                       : 1
Format                                   : AVC
Format/Info                              : Advanced Video Codec
Format profile                           : High@L4
Format settings                          : CABAC / 4 Ref Frames
Format settings, CABAC                   : Yes
Format settings, Reference frames        : 4 frames
Codec ID                                 : V_MPEG4/ISO/AVC
Duration                                 : 22 min 37 s
Bit rate mode                            : Variable
Bit rate                                 : 8 250 kb/s
Maximum bit rate                         : 12.4 Mb/s
Width                                    : 1 920 pixels
Height                                   : 1 080 pixels
Display aspect ratio                     : 16:9
Frame rate mode                          : Constant
Frame rate                               : 23.976 (24000/1001) FPS
Color space                              : YUV
Chroma subsampling                       : 4:2:0
Bit depth                                : 8 bits
Scan type                                : Progressive
Bits/(Pixel*Frame)                       : 0.166
Stream size                              : 1.29 GiB (94%)
Writing library                          : x264 core 157 r2965 861cec4
Encoding settings                        : cabac=1 / ref=4 / deblock=1:0:0 / analyse=0x3:0x113 / me=hex / subme=7 / psy=1 / psy_rd=1.00:0.00 / mixed_ref=1 / me_range=16 / chroma_me=1 / trellis=1 / 8x8dct=1 / cqm=0 / deadzone=21,11 / fast_pskip=1 / chroma_qp_offset=-2 / threads=34 / lookahead_threads=5 / sliced_threads=0 / nr=0 / decimate=1 / interlaced=0 / bluray_compat=0 / constrained_intra=0 / bframes=3 / b_pyramid=2 / b_adapt=1 / b_bias=0 / direct=1 / weightb=1 / open_gop=0 / weightp=2 / keyint=96 / keyint_min=96 / scenecut=40 / intra_refresh=0 / rc_lookahead=40 / rc=2pass / mbtree=1 / bitrate=8250 / ratetol=1.0 / qcomp=0.60 / qpmin=0 / qpmax=69 / qpstep=4 / cplxblur=20.0 / qblur=0.5 / vbv_maxrate=12375 / vbv_bufsize=6187 / nal_hrd=vbr / filler=0 / ip_ratio=1.40 / aq=1:1.00
Default                                  : Yes
Forced                                   : No
Color range                              : Limited
Color primaries                          : BT.709
Transfer characteristics                 : BT.709
Matrix coefficients                      : BT.709

Audio #1
ID                                       : 2
Format                                   : AAC LC
Format/Info                              : Advanced Audio Codec Low Complexity
Codec ID                                 : 2 / A_AAC-2
Duration                                 : 22 min 37 s
Bit rate                                 : 128 kb/s
Channel(s)                               : 2 channels
Channel layout                           : L R
Sampling rate                            : 44.1 kHz
Frame rate                               : 43.066 FPS (1024 SPF)
Compression mode                         : Lossy
Stream size                              : 20.8 MiB (1%)
Language                                 : Polish (PL)
Default                                  : Yes
Forced                                   : No

Audio #2
ID                                       : 3
Format                                   : AC-3
Format/Info                              : Audio Coding 3
Commercial name                          : Dolby Digital
Codec ID                                 : A_AC3
Duration                                 : 22 min 37 s
Bit rate mode                            : Constant
Bit rate                                 : 384 kb/s
Channel(s)                               : 6 channels
Channel layout                           : L R C LFE Ls Rs
Sampling rate                            : 48.0 kHz
Frame rate                               : 31.250 FPS (1536 SPF)
Compression mode                         : Lossy
Stream size                              : 62.2 MiB (4%)
Language                                 : English
Service kind                             : Complete Main
Default                                  : No
Forced                                   : No

Text #1
ID                                       : 4
Format                                   : UTF-8
Codec ID                                 : S_TEXT/UTF8
Codec ID/Info                            : UTF-8 Plain Text
Duration                                 : 22 min 23 s
Bit rate                                 : 104 b/s
Frame rate                               : 0.268 FPS
Count of elements                        : 360
Stream size                              : 17.1 KiB (0%)
Title                                    : English
Language                                 : English
Default                                  : No
Forced                                   : No

Text #2
ID                                       : 5
Format                                   : UTF-8
Codec ID                                 : S_TEXT/UTF8
Codec ID/Info                            : UTF-8 Plain Text
Duration                                 : 22 min 31 s
Bit rate                                 : 112 b/s
Frame rate                               : 0.437 FPS
Count of elements                        : 591
Stream size                              : 18.6 KiB (0%)
Title                                    : English [SDH]
Language                                 : English
Default                                  : No
Forced                                   : No

Text #3
ID                                       : 6
Format                                   : UTF-8
Codec ID                                 : S_TEXT/UTF8
Codec ID/Info                            : UTF-8 Plain Text
Duration                                 : 22 min 31 s
Bit rate                                 : 151 b/s
Frame rate                               : 0.232 FPS
Count of elements                        : 314
Stream size                              : 25.1 KiB (0%)
Title                                    : Bulgarian (Bulgaria)
Language                                 : Bulgarian
Default                                  : No
Forced                                   : No

Text #4
ID                                       : 7
Format                                   : UTF-8
Codec ID                                 : S_TEXT/UTF8
Codec ID/Info                            : UTF-8 Plain Text
Duration                                 : 22 min 27 s
Bit rate                                 : 89 b/s
Frame rate                               : 0.250 FPS
Count of elements                        : 337
Stream size                              : 14.8 KiB (0%)
Title                                    : Croatian (Croatia)
Language                                 : Croatian
Default                                  : No
Forced                                   : No

Text #5
ID                                       : 8
Format                                   : UTF-8
Codec ID                                 : S_TEXT/UTF8
Codec ID/Info                            : UTF-8 Plain Text
Duration                                 : 22 min 26 s
Bit rate                                 : 105 b/s
Frame rate                               : 0.296 FPS
Count of elements                        : 398
Stream size                              : 17.4 KiB (0%)
Title                                    : Czech (Czechia)
Language                                 : Czech
Default                                  : No
Forced                                   : No

Text #6
ID                                       : 9
Format                                   : UTF-8
Codec ID                                 : S_TEXT/UTF8
Codec ID/Info                            : UTF-8 Plain Text
Duration                                 : 22 min 31 s
Bit rate                                 : 88 b/s
Frame rate                               : 0.238 FPS
Count of elements                        : 322
Stream size                              : 14.7 KiB (0%)
Title                                    : Danish
Language                                 : Danish
Default                                  : No
Forced                                   : No

Text #7
ID                                       : 10
Format                                   : UTF-8
Codec ID                                 : S_TEXT/UTF8
Codec ID/Info                            : UTF-8 Plain Text
Duration                                 : 22 min 31 s
Bit rate                                 : 83 b/s
Frame rate                               : 0.245 FPS
Count of elements                        : 331
Stream size                              : 13.7 KiB (0%)
Title                                    : Dutch
Language                                 : Dutch
Default                                  : No
Forced                                   : No

Text #8
ID                                       : 11
Format                                   : UTF-8
Codec ID                                 : S_TEXT/UTF8
Codec ID/Info                            : UTF-8 Plain Text
Duration                                 : 22 min 23 s
Bit rate                                 : 106 b/s
Frame rate                               : 0.330 FPS
Count of elements                        : 443
Stream size                              : 17.4 KiB (0%)
Title                                    : European Spanish
Language                                 : Spanish
Default                                  : No
Forced                                   : No

Text #9
ID                                       : 12
Format                                   : UTF-8
Codec ID                                 : S_TEXT/UTF8
Codec ID/Info                            : UTF-8 Plain Text
Duration                                 : 22 min 24 s
Bit rate                                 : 82 b/s
Frame rate                               : 0.247 FPS
Count of elements                        : 332
Stream size                              : 13.5 KiB (0%)
Title                                    : Finnish
Language                                 : Finnish
Default                                  : No
Forced                                   : No

Text #10
ID                                       : 13
Format                                   : UTF-8
Codec ID                                 : S_TEXT/UTF8
Codec ID/Info                            : UTF-8 Plain Text
Duration                                 : 22 min 31 s
Bit rate                                 : 98 b/s
Frame rate                               : 0.286 FPS
Count of elements                        : 387
Stream size                              : 16.3 KiB (0%)
Title                                    : Hungarian
Language                                 : Hungarian
Default                                  : No
Forced                                   : No

Text #11
ID                                       : 14
Format                                   : UTF-8
Codec ID                                 : S_TEXT/UTF8
Codec ID/Info                            : UTF-8 Plain Text
Duration                                 : 22 min 28 s
Bit rate                                 : 100 b/s
Frame rate                               : 0.315 FPS
Count of elements                        : 425
Stream size                              : 16.5 KiB (0%)
Title                                    : Latin America Spanish
Language                                 : Spanish
Default                                  : No
Forced                                   : No

Text #12
ID                                       : 15
Format                                   : UTF-8
Codec ID                                 : S_TEXT/UTF8
Codec ID/Info                            : UTF-8 Plain Text
Duration                                 : 22 min 27 s
Bit rate                                 : 152 b/s
Frame rate                               : 0.250 FPS
Count of elements                        : 337
Stream size                              : 25.1 KiB (0%)
Title                                    : Macedonian (North Macedonia)
Language                                 : Macedonian
Default                                  : No
Forced                                   : No

Text #13
ID                                       : 16
Format                                   : UTF-8
Codec ID                                 : S_TEXT/UTF8
Codec ID/Info                            : UTF-8 Plain Text
Duration                                 : 22 min 31 s
Bit rate                                 : 89 b/s
Frame rate                               : 0.245 FPS
Count of elements                        : 331
Stream size                              : 14.7 KiB (0%)
Title                                    : Norwegian
Language                                 : Norwegian
Default                                  : No
Forced                                   : No

Text #14
ID                                       : 17
Format                                   : UTF-8
Codec ID                                 : S_TEXT/UTF8
Codec ID/Info                            : UTF-8 Plain Text
Duration                                 : 22 min 24 s
Bit rate                                 : 105 b/s
Frame rate                               : 0.304 FPS
Count of elements                        : 408
Stream size                              : 17.4 KiB (0%)
Title                                    : Polish
Language                                 : Polish
Default                                  : No
Forced                                   : No

Text #15
ID                                       : 18
Format                                   : UTF-8
Codec ID                                 : S_TEXT/UTF8
Codec ID/Info                            : UTF-8 Plain Text
Duration                                 : 22 min 23 s
Bit rate                                 : 90 b/s
Frame rate                               : 0.248 FPS
Count of elements                        : 333
Stream size                              : 14.8 KiB (0%)
Title                                    : Portuguese
Language                                 : Portuguese
Default                                  : No
Forced                                   : No

Text #16
ID                                       : 19
Format                                   : UTF-8
Codec ID                                 : S_TEXT/UTF8
Codec ID/Info                            : UTF-8 Plain Text
Duration                                 : 22 min 27 s
Bit rate                                 : 99 b/s
Frame rate                               : 0.277 FPS
Count of elements                        : 373
Stream size                              : 16.5 KiB (0%)
Title                                    : Portuguese Brazilian
Language                                 : Portuguese
Default                                  : No
Forced                                   : No

Text #17
ID                                       : 20
Format                                   : UTF-8
Codec ID                                 : S_TEXT/UTF8
Codec ID/Info                            : UTF-8 Plain Text
Duration                                 : 22 min 24 s
Bit rate                                 : 101 b/s
Frame rate                               : 0.274 FPS
Count of elements                        : 368
Stream size                              : 16.6 KiB (0%)
Title                                    : Romanian (Romania)
Language                                 : Romanian
Default                                  : No
Forced                                   : No

Text #18
ID                                       : 21
Format                                   : UTF-8
Codec ID                                 : S_TEXT/UTF8
Codec ID/Info                            : UTF-8 Plain Text
Duration                                 : 22 min 27 s
Bit rate                                 : 89 b/s
Frame rate                               : 0.250 FPS
Count of elements                        : 337
Stream size                              : 14.7 KiB (0%)
Title                                    : Serbian (Latin, Serbia)
Language                                 : Serbian
Default                                  : No
Forced                                   : No

Text #19
ID                                       : 22
Format                                   : UTF-8
Codec ID                                 : S_TEXT/UTF8
Codec ID/Info                            : UTF-8 Plain Text
Duration                                 : 22 min 27 s
Bit rate                                 : 83 b/s
Frame rate                               : 0.250 FPS
Count of elements                        : 337
Stream size                              : 13.7 KiB (0%)
Title                                    : Slovenian (Slovenia)
Language                                 : Slovenian
Default                                  : No
Forced                                   : No

Text #20
ID                                       : 23
Format                                   : UTF-8
Codec ID                                 : S_TEXT/UTF8
Codec ID/Info                            : UTF-8 Plain Text
Duration                                 : 22 min 31 s
Bit rate                                 : 96 b/s
Frame rate                               : 0.247 FPS
Count of elements                        : 334
Stream size                              : 15.9 KiB (0%)
Title                                    : Swedish
Language                                 : Swedish
Default                                  : No
Forced                                   : No

Podgląd:

Download:
Przepraszamy, ale nie możesz zobaczyć ukrytej zawartości. Musisz się zalogować, aby zobaczyć tę zawartość.

Nie masz uprawnień do przeglądania linków. Zarejestruj lub Zaloguj
Nie masz uprawnień do przeglądania linków. Zarejestruj lub Zaloguj

Warezy:
Przepraszamy, ale nie możesz zobaczyć ukrytej zawartości. Musisz się zalogować, aby zobaczyć tę zawartość.
« Ostatnia zmiana: 03 Maj 2023, 14:55:52 wysłana przez TryHackX »