TryHackX - Forum

Rick i Morty / Rick and Morty (2013 - 2021) [36,2 GB] [DPNP] [AVC 4 500 - 7 000kb/s] [AAC LC 207 kb/s] [AC-3 192 - 640 kb/s]

Offline TryHackX

  • Administrator
  • Nowy użytkownik
  • *****
    • Wiadomości: 17
    • Reputacja +0/-0
    • Zobacz profil
Rick i Morty / Rick and Morty (2013 - 2021) [36,2 GB] [DPNP] [AVC 4 500 - 7 000kb/s] [AAC LC  207 kb/s] [AC-3 192 - 640 kb/s]

Szybki podgląd:
Polski tytuł: Rick i Morty
Angielski tytuł: Rick and Morty
Rok premiery: 2013 - 2021
Rozmiar: 36,2 GB, Czas trwania: ~22 min, Typ wydania: Web-DL
Informacje językowe: Dźwięk dubbing Polski, Napisy Polskie.
Ilość odcinków: 52
Przepraszamy, ale nie możesz zobaczyć ukrytej zawartości. Musisz się zalogować, aby zobaczyć tę zawartość.

Writing library: x264 core 133 + Lavc58.134.100 aac oraz Lavf58.76.100 + Lavc58.134.100 ac3

Format: AVC, Codec ID: V_MPEG4/ISO/AVC, Bit rate: ~4 700 kb/s, Maximum bit rate: ~7 000 kb/s, Original frame rate: 23.976 FPS
Width: 1 920 pixels, Height: 1 080 pixels, Display aspect ratio: 16:9, Bit depth: 8 bits, Stream size: ~750 MiB (~95%)

Audio: #1, Format: AAC LC, Codec ID: 2 / A_AAC-2, Bit rate: 207 kb/s, Sampling rate: 44.1 kHz
Language: Polish, Channel(s): 2 channels, Channel layout: L R, Stream size: 32.9 MiB (5%)

Audio: #2, Format: AC-3, Codec ID: A_AC3, Bit rate: 640 kb/s, Sampling rate: 48.0 kHz, Bit depth: 32 bits
Language: Polish, Channel(s): 6 channels, Channel layout: L R C LFE Ls Rs, Stream size: 105 MiB (13%)

Audio: #3, Format: AC-3, Codec ID: A_AC3, Bit rate: 192 kb/s, Sampling rate: 48.0 kHz, Bit depth: 32 bits
Language: Polish, Channel(s): 2 channels, Channel layout: L R, Stream size: 30.7 MiB (4%)

Text: #1, Language: Polish, Format: ASS, Codec ID: S_TEXT/ASS

Informacje:
Tytuł: Rick i Morty / Rick and Morty
Ocena: IMDB - 9,2/10 (487 545), Filmweb - 8,7/10 (2 060)
Twórcy: Dan Harmon, Justin Roiland
Gatunek: Animowany / Przygodowy
Produkcja: USA
Premiera: 2 listopada 2013 (świat)

Opis:
Ekscentryczny naukowiec Rick udaje się ze swoim wnukiem Mortym do najdziwniejszych miejsc w galaktyce i alternatywnych rzeczywistości.

Etykieta: (Czasami należy się zalogować aby zobaczyć)
Season VI - Czeka na pełną premierę.

Obsada:
Justin Roiland
Chris Parnell
Spencer Grammer
Sarah Chalke
Kari Wahlgren
Dan Harmon
Tom Kenny
Maurice LaMarche
Brandon Johnson
Ryan Ridley
Cassie Steele
Phil Hendrie
Yôhei Tadano
Keisuke Chiba
Manabu Muraji

Obsada Polska:
Modest Ruciński
Michał Głowacki
Agnieszka Kudelska
Jacek Bończyk
Klementyna Umer
Joanna Brodzka
Grzegorz Kowalczyk
Natalia Kudelska
Julia Łukowiak
Katarzyna Michalska
Maksymilian Młynarski
Mateusz Mosiewicz
Michał Muzyka
Przemysław Niedzielski
Michał Pawlik
Krzysztof Rogucki
Dominika Sell
Dominika Kachlik

Informacje dodatkowe:
Wstawka ta zawiera pełny sezon od I do V. W każdym z odcinków wzmocniono dźwięk aby był głośniejszy, zachowano oryginalne kodeki i bitrate. Usunięto wszelkie reklamowe metadane.

Dane techniczne:
Kod: (Season I) You are not allowed to view links. Register or Login
General
Unique ID                                : 103886200597419956598122279722347015137 (0x4E27C123E45C8C9E1A6E8D5C61D22BE1)
Complete name                            : Rick and Morty S01E01 (2013 - 2014) [1080p 8 bits] [AVC] [AAC] [WEB-DL] [DPNP].mkv
Format                                   : Matroska
Format version                           : Version 4
File size                                : 701 MiB
Duration                                 : 22 min 1 s
Overall bit rate                         : 4 448 kb/s
Movie name                               : Rick and Morty
Writing application                      : Lavf58.76.100
Writing library                          : Lavf58.76.100
ErrorDetectionType                       : Per level 1

Video
ID                                       : 1
Format                                   : AVC
Format/Info                              : Advanced Video Codec
Format profile                           : High@L4
Format settings                          : CABAC / 4 Ref Frames
Format settings, CABAC                   : Yes
Format settings, Reference frames        : 4 frames
Codec ID                                 : V_MPEG4/ISO/AVC
Duration                                 : 22 min 1 s
Bit rate                                 : 4 500 kb/s
Width                                    : 1 920 pixels
Height                                   : 1 080 pixels
Display aspect ratio                     : 16:9
Frame rate mode                          : Constant
Frame rate                               : 23.976 (23976/1000) FPS
Color space                              : YUV
Chroma subsampling                       : 4:2:0
Bit depth                                : 8 bits
Scan type                                : Progressive
Bits/(Pixel*Frame)                       : 0.091
Stream size                              : 680 MiB (97%)
Writing library                          : x264 core 133
Encoding settings                        : cabac=1 / ref=3 / deblock=1:0:0 / analyse=0x3:0x113 / me=hex / subme=7 / psy=1 / psy_rd=1.00:0.00 / mixed_ref=1 / me_range=16 / chroma_me=1 / trellis=1 / 8x8dct=1 / cqm=0 / deadzone=21,11 / fast_pskip=1 / chroma_qp_offset=-2 / threads=4 / lookahead_threads=1 / sliced_threads=0 / nr=0 / decimate=1 / interlaced=0 / bluray_compat=0 / constrained_intra=0 / bframes=3 / b_pyramid=2 / b_adapt=1 / b_bias=0 / direct=1 / weightb=1 / open_gop=0 / weightp=2 / keyint=250 / keyint_min=23 / scenecut=40 / intra_refresh=0 / rc_lookahead=40 / rc=abr / mbtree=1 / bitrate=4500 / ratetol=1.0 / qcomp=0.60 / qpmin=0 / qpmax=69 / qpstep=4 / ip_ratio=1.40 / aq=1:1.00
Language                                 : English
Default                                  : Yes
Forced                                   : No

Audio
ID                                       : 2
Format                                   : AAC LC
Format/Info                              : Advanced Audio Codec Low Complexity
Codec ID                                 : 2 / A_AAC-2
Duration                                 : 22 min 1 s
Bit rate                                 : 207 kb/s
Channel(s)                               : 2 channels
Channel layout                           : L R
Sampling rate                            : 44.1 kHz
Frame rate                               : 43.066 FPS (1024 SPF)
Compression mode                         : Lossy
Delay relative to video                  : -23 ms
Stream size                              : 32.7 MiB (5%)
Writing library                          : Lavc58.134.100 aac
Language                                 : Polish
Default                                  : Yes
Forced                                   : Yes

Text
ID                                       : 3
Format                                   : ASS
Codec ID                                 : S_TEXT/ASS
Codec ID/Info                            : Advanced Sub Station Alpha
Duration                                 : 4 s 163 ms
Bit rate                                 : 29 b/s
Frame rate                               : 0.240 FPS
Count of elements                        : 1
Compression mode                         : Lossless
Stream size                              : 15.0 Bytes (0%)
Writing library                          : Lavc58.134.100 ssa
Language                                 : Polish
Default                                  : Yes
Forced                                   : Yes
Kod: (Season II) You are not allowed to view links. Register or Login
General
Unique ID                                : 111047658942457657427375157123250602442 (0x538B004C18A9D3942CD571139FBB41CA)
Complete name                            : Rick and Morty S02E01 (2015) [1080p 8 bits] [AVC] [AAC] [WEB-DL] [DPNP].mkv
Format                                   : Matroska
Format version                           : Version 4
File size                                : 757 MiB
Duration                                 : 23 min 1 s
Overall bit rate                         : 4 598 kb/s
Movie name                               : Rick and Morty
Writing application                      : Lavf58.76.100
Writing library                          : Lavf58.76.100
ErrorDetectionType                       : Per level 1

Video
ID                                       : 1
Format                                   : AVC
Format/Info                              : Advanced Video Codec
Format profile                           : High@L4
Format settings                          : CABAC / 4 Ref Frames
Format settings, CABAC                   : Yes
Format settings, Reference frames        : 4 frames
Codec ID                                 : V_MPEG4/ISO/AVC
Duration                                 : 22 min 51 s
Bit rate                                 : 4 500 kb/s
Width                                    : 1 920 pixels
Height                                   : 1 080 pixels
Display aspect ratio                     : 16:9
Frame rate mode                          : Constant
Frame rate                               : 23.976 (23976/1000) FPS
Color space                              : YUV
Chroma subsampling                       : 4:2:0
Bit depth                                : 8 bits
Scan type                                : Progressive
Bits/(Pixel*Frame)                       : 0.091
Stream size                              : 735 MiB (97%)
Writing library                          : x264 core 133
Encoding settings                        : cabac=1 / ref=3 / deblock=1:0:0 / analyse=0x3:0x113 / me=hex / subme=7 / psy=1 / psy_rd=1.00:0.00 / mixed_ref=1 / me_range=16 / chroma_me=1 / trellis=1 / 8x8dct=1 / cqm=0 / deadzone=21,11 / fast_pskip=1 / chroma_qp_offset=-2 / threads=4 / lookahead_threads=1 / sliced_threads=0 / nr=0 / decimate=1 / interlaced=0 / bluray_compat=0 / constrained_intra=0 / bframes=3 / b_pyramid=2 / b_adapt=1 / b_bias=0 / direct=1 / weightb=1 / open_gop=0 / weightp=2 / keyint=250 / keyint_min=23 / scenecut=40 / intra_refresh=0 / rc_lookahead=40 / rc=abr / mbtree=1 / bitrate=4500 / ratetol=1.0 / qcomp=0.60 / qpmin=0 / qpmax=69 / qpstep=4 / ip_ratio=1.40 / aq=1:1.00
Default                                  : Yes
Forced                                   : No

Audio
ID                                       : 2
Format                                   : AAC LC
Format/Info                              : Advanced Audio Codec Low Complexity
Codec ID                                 : 2 / A_AAC-2
Duration                                 : 23 min 1 s
Bit rate                                 : 205 kb/s
Channel(s)                               : 2 channels
Channel layout                           : L R
Sampling rate                            : 44.1 kHz
Frame rate                               : 43.066 FPS (1024 SPF)
Compression mode                         : Lossy
Delay relative to video                  : -23 ms
Stream size                              : 33.8 MiB (4%)
Writing library                          : Lavc58.134.100 aac
Language                                 : Polish
Default                                  : Yes
Forced                                   : Yes

Text
ID                                       : 3
Format                                   : ASS
Codec ID                                 : S_TEXT/ASS
Codec ID/Info                            : Advanced Sub Station Alpha
Duration                                 : 4 s 163 ms
Bit rate                                 : 29 b/s
Frame rate                               : 0.240 FPS
Count of elements                        : 1
Compression mode                         : Lossless
Stream size                              : 15.0 Bytes (0%)
Writing library                          : Lavc58.134.100 ssa
Language                                 : Polish
Default                                  : Yes
Forced                                   : Yes

Menu
00:00:00.000                             : :00:00:00.000
00:02:29.298                             : :00:02:29.358
00:03:01.121                             : :00:03:01.181
00:11:13.446                             : :00:11:13.506
00:21:31.897                             : :00:21:31.957
00:22:02.845                             : :00:22:02.905
Kod: (Season III) You are not allowed to view links. Register or Login
General
Unique ID                                : 238659836813515304956842150542322943399 (0xB38C366E89A936E7186A3D60F4FFC5A7)
Complete name                            : Rick and Morty S03E01 (2017 - 2018) [1080p 8 bits] [AVC] [AAC] [WEB-DL] [DPNP].mkv
Format                                   : Matroska
Format version                           : Version 4
File size                                : 690 MiB
Duration                                 : 23 min 43 s
Overall bit rate                         : 4 067 kb/s
Movie name                               : Rick and Morty
Writing application                      : Lavf58.76.100
Writing library                          : Lavf58.76.100
ErrorDetectionType                       : Per level 1

Video
ID                                       : 1
Format                                   : AVC
Format/Info                              : Advanced Video Codec
Format profile                           : High@L4
Format settings                          : CABAC / 4 Ref Frames
Format settings, CABAC                   : Yes
Format settings, Reference frames        : 4 frames
Codec ID                                 : V_MPEG4/ISO/AVC
Duration                                 : 23 min 34 s
Bit rate                                 : 4 000 kb/s
Width                                    : 1 920 pixels
Height                                   : 1 080 pixels
Display aspect ratio                     : 16:9
Frame rate mode                          : Constant
Frame rate                               : 23.976 (23976/1000) FPS
Color space                              : YUV
Chroma subsampling                       : 4:2:0
Bit depth                                : 8 bits
Scan type                                : Progressive
Bits/(Pixel*Frame)                       : 0.080
Stream size                              : 668 MiB (97%)
Writing library                          : x264 core 133
Encoding settings                        : cabac=1 / ref=3 / deblock=1:0:0 / analyse=0x3:0x113 / me=hex / subme=7 / psy=1 / psy_rd=1.00:0.00 / mixed_ref=1 / me_range=16 / chroma_me=1 / trellis=1 / 8x8dct=1 / cqm=0 / deadzone=21,11 / fast_pskip=1 / chroma_qp_offset=-2 / threads=4 / lookahead_threads=1 / sliced_threads=0 / nr=0 / decimate=1 / interlaced=0 / bluray_compat=0 / constrained_intra=0 / bframes=3 / b_pyramid=2 / b_adapt=1 / b_bias=0 / direct=1 / weightb=1 / open_gop=0 / weightp=2 / keyint=250 / keyint_min=23 / scenecut=40 / intra_refresh=0 / rc_lookahead=40 / rc=abr / mbtree=1 / bitrate=4000 / ratetol=1.0 / qcomp=0.60 / qpmin=0 / qpmax=69 / qpstep=4 / ip_ratio=1.40 / aq=1:1.00
Language                                 : English
Default                                  : Yes
Forced                                   : No

Audio
ID                                       : 2
Format                                   : AAC LC
Format/Info                              : Advanced Audio Codec Low Complexity
Codec ID                                 : 2 / A_AAC-2
Duration                                 : 23 min 43 s
Bit rate                                 : 200 kb/s
Channel(s)                               : 2 channels
Channel layout                           : L R
Sampling rate                            : 44.1 kHz
Frame rate                               : 43.066 FPS (1024 SPF)
Compression mode                         : Lossy
Delay relative to video                  : -23 ms
Stream size                              : 33.9 MiB (5%)
Writing library                          : Lavc58.134.100 aac
Language                                 : Polish
Default                                  : Yes
Forced                                   : Yes

Text
ID                                       : 3
Format                                   : ASS
Codec ID                                 : S_TEXT/ASS
Codec ID/Info                            : Advanced Sub Station Alpha
Duration                                 : 4 s 163 ms
Bit rate                                 : 29 b/s
Frame rate                               : 0.240 FPS
Count of elements                        : 1
Compression mode                         : Lossless
Stream size                              : 15.0 Bytes (0%)
Writing library                          : Lavc58.134.100 ssa
Language                                 : Polish
Default                                  : Yes
Forced                                   : Yes
Kod: (Season IV) You are not allowed to view links. Register or Login
General
Unique ID                                : 155440002957725604494769233541900289422 (0x74F0A7D70D77E6299144CFB7AFC0458E)
Complete name                            : Rick and Morty S04E01 (2019 - 2020) [1080p 8 bits] [AVC] [AC-3] [WEB-DL] [DPNP].mkv
Format                                   : Matroska
Format version                           : Version 4
File size                                : 818 MiB
Duration                                 : 22 min 51 s
Overall bit rate mode                    : Variable
Overall bit rate                         : 5 004 kb/s
Movie name                               : Rick and Morty
Writing application                      : Lavf58.76.100
Writing library                          : Lavf58.76.100
ErrorDetectionType                       : Per level 1

Video
ID                                       : 1
Format                                   : AVC
Format/Info                              : Advanced Video Codec
Format profile                           : Main@L4
Format settings                          : CABAC / 3 Ref Frames
Format settings, CABAC                   : Yes
Format settings, Reference frames        : 3 frames
Codec ID                                 : V_MPEG4/ISO/AVC
Duration                                 : 22 min 51 s
Bit rate mode                            : Variable
Bit rate                                 : 4 420 kb/s
Maximum bit rate                         : 6 630 kb/s
Width                                    : 1 920 pixels
Height                                   : 1 080 pixels
Display aspect ratio                     : 16:9
Frame rate mode                          : Constant
Frame rate                               : 23.976 (24000/1001) FPS
Color space                              : YUV
Chroma subsampling                       : 4:2:0
Bit depth                                : 8 bits
Scan type                                : Progressive
Bits/(Pixel*Frame)                       : 0.089
Stream size                              : 713 MiB (87%)
Writing library                          : x264 core 148 r2715 7e75228
Encoding settings                        : cabac=1 / ref=3 / deblock=1:0:0 / analyse=0x1:0x111 / me=umh / subme=10 / psy=1 / psy_rd=1.00:0.00 / mixed_ref=1 / me_range=24 / chroma_me=1 / trellis=2 / 8x8dct=0 / cqm=0 / deadzone=21,11 / fast_pskip=1 / chroma_qp_offset=-2 / threads=8 / lookahead_threads=1 / sliced_threads=0 / nr=0 / decimate=1 / interlaced=0 / bluray_compat=0 / stitchable=1 / constrained_intra=0 / bframes=2 / b_pyramid=0 / b_adapt=2 / b_bias=0 / direct=3 / weightb=1 / open_gop=0 / weightp=2 / keyint=250 / keyint_min=23 / scenecut=0 / intra_refresh=0 / rc_lookahead=48 / rc=2pass / mbtree=1 / bitrate=4420 / ratetol=1.0 / qcomp=0.50 / qpmin=6 / qpmax=51 / qpstep=4 / cplxblur=20.0 / qblur=0.5 / vbv_maxrate=6630 / vbv_bufsize=8840 / nal_hrd=vbr / filler=0 / ip_ratio=1.40 / aq=1:1.00
Default                                  : Yes
Forced                                   : No

Audio
ID                                       : 2
Format                                   : AC-3
Format/Info                              : Audio Coding 3
Commercial name                          : Dolby Digital
Codec ID                                 : A_AC3
Duration                                 : 22 min 51 s
Bit rate mode                            : Constant
Bit rate                                 : 640 kb/s
Channel(s)                               : 6 channels
Channel layout                           : L R C LFE Ls Rs
Sampling rate                            : 48.0 kHz
Frame rate                               : 31.250 FPS (1536 SPF)
Bit depth                                : 32 bits
Compression mode                         : Lossy
Stream size                              : 105 MiB (13%)
Writing library                          : Lavc58.134.100 ac3
Service kind                             : Complete Main
Default                                  : Yes
Forced                                   : No

Text
ID                                       : 3
Format                                   : ASS
Codec ID                                 : S_TEXT/ASS
Codec ID/Info                            : Advanced Sub Station Alpha
Duration                                 : 22 min 33 s
Bit rate                                 : 3 b/s
Frame rate                               : 0.014 FPS
Count of elements                        : 19
Compression mode                         : Lossless
Stream size                              : 653 Bytes (0%)
Writing library                          : Lavc58.134.100 ssa
Language                                 : Polish
Default                                  : Yes
Forced                                   : Yes
Kod: (Season V) You are not allowed to view links. Register or Login
General
Unique ID                                : 41895740103779402634333491974941307813 (0x1F84D3776926B18A921ED11495B9F3A5)
Complete name                            : Rick and Morty S05E01 (2021) [1080p 8 bits] [AVC] [AC-3] [WEB-DL] [DPNP].mkv
Format                                   : Matroska
Format version                           : Version 4
File size                                : 757 MiB
Duration                                 : 22 min 19 s
Overall bit rate mode                    : Constant
Overall bit rate                         : 4 738 kb/s
Movie name                               : Rick and Morty
Writing application                      : Lavf58.76.100
Writing library                          : Lavf58.76.100
ErrorDetectionType                       : Per level 1

Video
ID                                       : 1
Format                                   : AVC
Format/Info                              : Advanced Video Codec
Format profile                           : High@L4
Format settings                          : CABAC / 4 Ref Frames
Format settings, CABAC                   : Yes
Format settings, Reference frames        : 4 frames
Codec ID                                 : V_MPEG4/ISO/AVC
Duration                                 : 22 min 19 s
Bit rate mode                            : Constant
Bit rate                                 : 4 543 kb/s
Nominal bit rate                         : 10 000 kb/s
Width                                    : 1 920 pixels
Height                                   : 1 080 pixels
Display aspect ratio                     : 16:9
Frame rate mode                          : Variable
Frame rate                               : 23.976 FPS
Color space                              : YUV
Chroma subsampling                       : 4:2:0
Bit depth                                : 8 bits
Scan type                                : Progressive
Bits/(Pixel*Frame)                       : 0.091
Stream size                              : 725 MiB (96%)
Language                                 : English
Default                                  : Yes
Forced                                   : No
Color range                              : Limited
Color primaries                          : BT.709
Transfer characteristics                 : BT.709
Matrix coefficients                      : BT.709

Audio
ID                                       : 2
Format                                   : AC-3
Format/Info                              : Audio Coding 3
Commercial name                          : Dolby Digital
Codec ID                                 : A_AC3
Duration                                 : 22 min 19 s
Bit rate mode                            : Constant
Bit rate                                 : 192 kb/s
Channel(s)                               : 2 channels
Channel layout                           : L R
Sampling rate                            : 48.0 kHz
Frame rate                               : 31.250 FPS (1536 SPF)
Bit depth                                : 32 bits
Compression mode                         : Lossy
Stream size                              : 30.7 MiB (4%)
Writing library                          : Lavc58.134.100 ac3
Language                                 : Polish
Service kind                             : Complete Main
Default                                  : Yes
Forced                                   : No

Podgląd:

Download:
Przepraszamy, ale nie możesz zobaczyć ukrytej zawartości. Musisz się zalogować, aby zobaczyć tę zawartość.

You are not allowed to view links. Register or Login
You are not allowed to view links. Register or Login

Warezy:
Przepraszamy, ale nie możesz zobaczyć ukrytej zawartości. Musisz się zalogować, aby zobaczyć tę zawartość.
« Ostatnia zmiana: Sierpnia 01, 2022, 04:17:10 pm wysłana przez TryHackX »