Wojownicze Żółwie Ninja Trylogia / Teenage Mutant Ninja Turtles Trilogy (1990 - 1993) [52,87 GiB] [DA/LP/NA/NM/NP] [VC-1 24.2 Mb/s - 25.5 Mb/s] [MLP FBA 1 700 kb/s - 3 168 kb/s] [AAC LC 304 kb/s] [AC-
TryHackX - Forum

Wojownicze Żółwie Ninja Trylogia / Teenage Mutant Ninja Turtles Trilogy (1990 - 1993) [52,87 GiB] [DA/LP/NA/NM/NP] [VC-1 24.2 Mb/s - 25.5 Mb/s] [MLP FBA 1 700 kb/s - 3 168 kb/s] [AAC LC 304 kb/s] [AC-

Offline TryHackX

  • Administrator
  • Aktywny użytkownik
  • *****
    • Wiadomości: 177
    • Reputacja +0/-0
    • Zobacz profil
Wojownicze Żółwie Ninja Trylogia / Teenage Mutant Ninja Turtles Trilogy (1990 - 1993) [52,87 GiB] [DA/LP/NA/NM/NP] [VC-1 24.2 Mb/s - 25.5 Mb/s] [MLP FBA 1 700 kb/s - 3 168 kb/s] [AAC LC 304 kb/s] [AC-3 448 kb/s]

Szybki podgląd:
Tytuł: Wojownicze Żółwie Ninja Trylogia / Teenage Mutant Ninja Turtles Trilogy
Rok premiery: 1990 - 1993, Kategoria wiekowa:  (PG)
Rozmiar: 52,87 GiB, Czas trwania: ~1 h 32 min , Typ wydania: Bluray
Informacje językowe: Lektor Polski, Dubbing Angielski, Napisy Polskie, Napisy Angielskie, Napisy Multi
Przepraszamy, ale nie możesz zobaczyć ukrytej zawartości. Musisz się zalogować, aby zobaczyć tę zawartość.




Wojownicze Żółwie Ninja / Teenage Mutant Ninja Turtles (1990) [18.05 GiB] [M/LP/DA/NPAM] [VC-1 25.5 Mb/s] [MLP FBA 1 700 kb/s - 3 168 kb/s] [AAC LC 304 kb/s]

Szybki podgląd:
Polski tytuł: Wojownicze Żółwie Ninja
Angielski tytuł: Teenage Mutant Ninja Turtles
Rok premiery: 1990, Kategoria wiekowa: PG
Rozmiar: 18.05 GiB, Czas trwania: 1 h 33 min, Typ wydania: Bluray
Informacje językowe: Lektor Polski, Dubbing Angielski, Napisy Polskie, Napisy Angielskie, Napisy Multi

Writing library: libebml v1.4.5 + libmatroska v1.7.1 / Lavf58.44.100
Writing application: mkvmerge v83.0 [64-bit], Format: Matroska, Version: Version 4
Video: #1, Format: VC-1, Codec ID: V_MS/VFW/FOURCC / WVC1, Bit rate: 25.5 Mb/s, Frame rate: 23.976 (24000/1001) FPS
Width: 1 920 pixels, Height: 1 080 pixels, Display aspect ratio: 16:9, Bit depth: 8 bits, Stream size: 16.7 GiB (92%)

Audio: #2, Format: AAC LC, Codec ID: 2 / A_AAC-2, Bit rate: 304 kb/s, Sampling rate: 44.1 kHz
Language: Polish, Channel(s): 2 channels, Channel layout: L R, Stream size: 203 MiB (1%)

Audio: #1, Format: MLP FBA, Codec ID: A_TRUEHD, Bit rate: 1 700 kb/s, Sampling rate: 48.0 kHz, Bit depth: 24 bits
Commercial name: Dolby TrueHD, Language: English, Channel(s): 6 channels, Channel layout: L R C LFE Ls Rs, Stream size: 1.11 GiB (6%)

Text: #1, Language: English, Format: PGS, Codec ID: S_HDMV/PGS, Codec ID/Info: Picture based subtitle format used on BDs/HD-DVDs

Text: #2, Language: French, Format: PGS, Codec ID: S_HDMV/PGS, Codec ID/Info: Picture based subtitle format used on BDs/HD-DVDs

Informacje:
Tytuł: Wojownicze Żółwie Ninja / Teenage Mutant Ninja Turtles
Ocena: IMDB - 6.8/10 (105K), Filmweb - 6,7/10 (10 258)
Nagrody: 3 wins & 3 nominations
Reżyseria: Steve Barron
Scenariusz: Todd W. Langen, Bobby Herbeck
Gatunek: Familijny, Fantasy, Komedia, Sztuki walki
Premiera: 30 marca 1990 (Świat)
Boxoffice: $201 965 915 na świecie, $135 265 915 w USA, $66 700 000 poza USA
Studio: 888 Productions  /  Golden Harvest Company  /  Limelight Entertainment / więcej
Budżet: $13 500 000
Na podstawie: Kevin Eastman  (postacie), /, Peter Laird  (postacie), ...więcej

Opis:
Cztery żółwie w wyniku kontaktu z tajemniczą substancją uzyskują ludzkie rozmiary i umysł. Ich mentorem oraz opiekunem zostaje szczur Splinter.

Większy opis:
Cztery małe żółwiki i szczur pod wpływem kontaktu z żelem zwanym Ooze mutują, rosną i chodzą jak ludzie. Szczur, który kiedyś obserwował wschodnie sztuki walki uczy żółwie jak walczyć i posługiwać się bronią. Wkrótce przyjdzie im wykorzystać swoje umiejętności. Miasto popada w ręce bandziorów, wielu młodych ludzi zapisuje się do gangu, którego przywódcą jest niejaki Shredder, dawny wróg szczura Splintera. Leonardo, Donatello, Michelangelo oraz Rafaello decydują się z nim walczyć. A jedyną osobą w mieście, która chce im pomóc jest dziennikarka April O'Neal.

Etykieta:


Obsada:
  • Judith Hoag jako April O'Neil
  • Elias Koteas jako Casey Jones
  • Josh Pais jako
  • David Forman jako Leonardo
  • Brian Tochi jako Leonardo (voice)
  • Leif Tilden jako Donatello
  • Corey Feldman jako Donatello (voice)
  • Michelan Sisti jako Michaelangelo
  • Robbie Rist jako Michaelangelo (voice)
  • Kevin Clash jako Splinter (voice)
  • James Saito jako The Shredder
  • David McCharen jako The Shredder (voice), …
  • Toshishiro Obata jako Tatsu
  • Michael McConnohie jako Tatsu (voice)
  • Michael Turney jako Danny Pennington
  • Jay Patterson jako Charles Pennington
  • Raymond Serra jako Chief Sterns
  • Sam Rockwell jako Head Thug

Dane techniczne:
Kod: (Teenage Mutant Ninja Turtles (1990)) [Zaznacz]
General
Unique ID                                : 311647234568397557909740621096790194989 (0xEA7512F923D8317DB7BC28DF588AFB2D)
Complete name                            : Teenage Mutant Ninja Turtles (1990) [1080p] [VC-1] [MLP FBA] [BluRay] [Lektor PL].mkv
Format                                   : Matroska
Format version                           : Version 4
File size                                : 18.0 GiB
Duration                                 : 1 h 33 min
Overall bit rate mode                    : Variable
Overall bit rate                         : 27.6 Mb/s
Frame rate                               : 23.976 FPS
Movie name                               : Teenage Mutant Ninja Turtles
Encoded date                             : 2024-05-13 17:29:54 UTC
Writing application                      : mkvmerge v83.0 ('Circle Of Friends') 64-bit
Writing library                          : libebml v1.4.5 + libmatroska v1.7.1 / Lavf58.44.100
Cover                                    : Yes
Attachments                              : cover.jpg

Video
ID                                       : 1
ID in the original source medium         : 4113 (0x1011)
Format                                   : VC-1
Format profile                           : Advanced@L3
Codec ID                                 : V_MS/VFW/FOURCC / WVC1
Codec ID/Hint                            : Microsoft
Duration                                 : 1 h 33 min
Bit rate                                 : 25.5 Mb/s
Width                                    : 1 920 pixels
Height                                   : 1 080 pixels
Display aspect ratio                     : 16:9
Frame rate mode                          : Constant
Frame rate                               : 23.976 (24000/1001) FPS
Color space                              : YUV
Chroma subsampling                       : 4:2:0
Bit depth                                : 8 bits
Scan type                                : Progressive
Compression mode                         : Lossy
Bits/(Pixel*Frame)                       : 0.513
Stream size                              : 16.7 GiB (92%)
Language                                 : English
Default                                  : No
Forced                                   : No
Original source medium                   : Blu-ray

Audio #1
ID                                       : 2
ID in the original source medium         : 4353 (0x1101)
Format                                   : MLP FBA
Format/Info                              : Meridian Lossless Packing FBA
Commercial name                          : Dolby TrueHD
Codec ID                                 : A_TRUEHD
Duration                                 : 1 h 33 min
Bit rate mode                            : Variable
Bit rate                                 : 1 700 kb/s
Maximum bit rate                         : 3 168 kb/s
Channel(s)                               : 6 channels
Channel layout                           : L R C LFE Ls Rs
Sampling rate                            : 48.0 kHz
Frame rate                               : 1 200.000 FPS (40 SPF)
Bit depth                                : 24 bits
Compression mode                         : Lossless
Stream size                              : 1.11 GiB (6%)
Language                                 : English
Default                                  : Yes
Forced                                   : No
Original source medium                   : Blu-ray

Audio #2
ID                                       : 3
Format                                   : AAC LC
Format/Info                              : Advanced Audio Codec Low Complexity
Codec ID                                 : 2 / A_AAC-2
Duration                                 : 1 h 33 min
Bit rate                                 : 304 kb/s
Channel(s)                               : 2 channels
Channel layout                           : L R
Sampling rate                            : 44.1 kHz
Frame rate                               : 43.066 FPS (1024 SPF)
Compression mode                         : Lossy
Stream size                              : 203 MiB (1%)
Language                                 : Polish
Default                                  : Yes
Forced                                   : No

Text #1
ID                                       : 4
ID in the original source medium         : 4608 (0x1200)
Format                                   : PGS
Muxing mode                              : zlib
Codec ID                                 : S_HDMV/PGS
Codec ID/Info                            : Picture based subtitle format used on BDs/HD-DVDs
Duration                                 : 1 h 32 min
Bit rate                                 : 31.1 kb/s
Frame rate                               : 0.486 FPS
Count of elements                        : 2710
Stream size                              : 20.6 MiB (0%)
Language                                 : English
Default                                  : No
Forced                                   : No
Original source medium                   : Blu-ray

Text #2
ID                                       : 5
ID in the original source medium         : 4609 (0x1201)
Format                                   : PGS
Muxing mode                              : zlib
Codec ID                                 : S_HDMV/PGS
Codec ID/Info                            : Picture based subtitle format used on BDs/HD-DVDs
Duration                                 : 1 h 32 min
Bit rate                                 : 23.2 kb/s
Frame rate                               : 0.358 FPS
Count of elements                        : 1996
Stream size                              : 15.4 MiB (0%)
Language                                 : French
Default                                  : No
Forced                                   : No
Original source medium                   : Blu-ray

Text #3
ID                                       : 6
ID in the original source medium         : 4610 (0x1202)
Format                                   : PGS
Muxing mode                              : zlib
Codec ID                                 : S_HDMV/PGS
Codec ID/Info                            : Picture based subtitle format used on BDs/HD-DVDs
Duration                                 : 1 h 32 min
Bit rate                                 : 19.8 kb/s
Frame rate                               : 0.329 FPS
Count of elements                        : 1832
Stream size                              : 13.1 MiB (0%)
Language                                 : Spanish
Default                                  : No
Forced                                   : No
Original source medium                   : Blu-ray

Menu
00:00:00.000                             : en:Chapter 01
00:04:55.003                             : en:Chapter 02
00:09:14.554                             : en:Chapter 03
00:11:18.469                             : en:Chapter 04
00:14:35.875                             : en:Chapter 05
00:16:07.925                             : en:Chapter 06
00:19:14.069                             : en:Chapter 07
00:21:15.565                             : en:Chapter 08
00:26:06.856                             : en:Chapter 09
00:27:21.097                             : en:Chapter 10
00:28:20.657                             : en:Chapter 11
00:33:09.988                             : en:Chapter 12
00:36:21.846                             : en:Chapter 13
00:49:29.424                             : en:Chapter 14
00:55:34.998                             : en:Chapter 15
00:58:57.784                             : en:Chapter 16
01:06:05.878                             : en:Chapter 17
01:12:04.611                             : en:Chapter 18
01:16:45.642                             : en:Chapter 19
01:24:14.466                             : en:Chapter 20


Podgląd:


Wojownicze Żółwie Ninja II / Teenage Mutant Ninja Turtles II: The Secret of the Ooze (1991) [17.06 GiB] [M/LP/DA/NPAM] [VC-1 25.2 Mb/s] [MLP FBA 1 780 kb/s - 3 069 kb/s] [AC-3 448 kb/s]

Szybki podgląd:
Polski tytuł: Wojownicze Żółwie Ninja II
Angielski tytuł: Teenage Mutant Ninja Turtles II: The Secret of the Ooze
Rok premiery: 1991, Kategoria wiekowa: PG
Rozmiar: 17.06 GiB, Czas trwania: 1 h 28 min, Typ wydania: Bluray
Informacje językowe: Lektor Polski, Dubbing Angielski, Napisy Polskie, Napisy Angielskie, Napisy Multi

Writing library: libebml v1.4.5 + libmatroska v1.7.1
Writing application: mkvmerge v83.0 [64-bit], Format: Matroska, Version: Version 4
Video: #1, Format: VC-1, Codec ID: V_MS/VFW/FOURCC / WVC1, Bit rate: 25.2 Mb/s, Frame rate: 23.976 (24000/1001) FPS
Width: 1 920 pixels, Height: 1 080 pixels, Display aspect ratio: 16:9, Bit depth: 8 bits, Stream size: 15.6 GiB (92%)

Audio: #2, Format: AC-3, Codec ID: A_AC3, Bit rate: 448 kb/s, Sampling rate: 48.0 kHz
Commercial name: Dolby Digital, Language: Polish, Channel(s): 6 channels, Channel layout: L R C LFE Ls Rs, Stream size: 284 MiB (2%)

Audio: #1, Format: MLP FBA, Codec ID: A_TRUEHD, Bit rate: 1 780 kb/s, Sampling rate: 48.0 kHz, Bit depth: 24 bits
Commercial name: Dolby TrueHD, Language: English, Channel(s): 6 channels, Channel layout: L R C LFE Ls Rs, Stream size: 1.10 GiB (6%)

Text: #1, Language: English, Format: PGS, Codec ID: S_HDMV/PGS, Codec ID/Info: Picture based subtitle format used on BDs/HD-DVDs

Text: #3, Language: Spanish, Format: PGS, Codec ID: S_HDMV/PGS, Codec ID/Info: Picture based subtitle format used on BDs/HD-DVDs

Informacje:
Tytuł: Wojownicze Żółwie Ninja II / Teenage Mutant Ninja Turtles II: The Secret of the Ooze
Ocena: IMDB - 6.0/10 (61K), Filmweb - 6,5/10 (4 780)
Nagrody: 2 wins & 1 nomination
Reżyseria: Michael Pressman
Scenariusz: Todd W. Langen
Gatunek: Familijny, Fantasy, Sztuki walki
Premiera: 22 marca 1991 (Świat)
Boxoffice: $78 656 813 w USA
Studio: Golden Harvest Company (przedstawia)  /  New Line Cinema  /  Northshore Investments Ltd.
Budżet: $25 000 000
Na podstawie: Peter Laird  (postacie), /, Kevin Eastman  (postacie)

Opis:
Shredder wchodzi w posiadanie substancji, za pomocą której zamierza zniszczyć zmutowane żółwie.

Większy opis:
Żółwie chcą odnaleźć tajemniczą substancję Ooze, dzięki której zmutowały, aby zapobiec, że dostatnie się w niepowołane ręce. Niestety spóźniają się i Shredder dostaje ją pierwszy. Teraz on przygotowuje swoje mutanty do walki z żółwiami...

Etykieta:


Obsada:
  • Paige Turco jako April O'Neil
  • David Warner jako Professor Jordon Perry
  • Michelan Sisti jako Michelangelo
  • Leif Tilden jako Donatello
  • Kenn Scott jako Raphael, (as Kenn Troum)
  • Mark Caso jako Leonardo
  • Kevin Clash jako Splinter
  • Ernie Reyes Jr. jako Keno
  • François Chau jako Shredder, (as Francois Chau)
  • Toshishiro Obata jako Tatsu
  • Raymond Serra jako Chief Sterns
  • Mark Ginther jako Rahzar
  • Kurt Bryant jako Tokka
  • Kevin Nash jako Super Shredder
  • Joseph Amodei jako Parlor Owner
  • Nick DeMarinis jako Parlor Assistant
  • Kelli Rabke jako Teenage Girl
  • Susie Essman jako Soho Woman, (as Susan Essman)

Dane techniczne:
Kod: (Teenage Mutant Ninja Turtles II The Secret of the Ooze (1991)) [Zaznacz]
General
Unique ID                                : 338383356249982635697061413980049423770 (0xFE92438B91C205B5EFBA8C3EB53ABD9A)
Complete name                            : Teenage Mutant Ninja Turtles II The Secret of the Ooze (1991) [1080p] [VC-1] [MLP FBA] [BluRay] [Lektor PL].mkv
Format                                   : Matroska
Format version                           : Version 4
File size                                : 17.1 GiB
Duration                                 : 1 h 28 min
Overall bit rate mode                    : Variable
Overall bit rate                         : 27.6 Mb/s
Frame rate                               : 23.976 FPS
Encoded date                             : 2024-05-13 17:51:57 UTC
Writing application                      : mkvmerge v83.0 ('Circle Of Friends') 64-bit
Writing library                          : libebml v1.4.5 + libmatroska v1.7.1
Cover                                    : Yes
Attachments                              : cover.jpg

Video
ID                                       : 1
ID in the original source medium         : 4113 (0x1011)
Format                                   : VC-1
Format profile                           : Advanced@L3
Codec ID                                 : V_MS/VFW/FOURCC / WVC1
Codec ID/Hint                            : Microsoft
Duration                                 : 1 h 28 min
Bit rate                                 : 25.2 Mb/s
Width                                    : 1 920 pixels
Height                                   : 1 080 pixels
Display aspect ratio                     : 16:9
Frame rate mode                          : Constant
Frame rate                               : 23.976 (24000/1001) FPS
Color space                              : YUV
Chroma subsampling                       : 4:2:0
Bit depth                                : 8 bits
Scan type                                : Progressive
Compression mode                         : Lossy
Bits/(Pixel*Frame)                       : 0.508
Stream size                              : 15.6 GiB (92%)
Language                                 : English
Default                                  : No
Forced                                   : No
Original source medium                   : Blu-ray

Audio #1
ID                                       : 2
ID in the original source medium         : 4353 (0x1101)
Format                                   : MLP FBA
Format/Info                              : Meridian Lossless Packing FBA
Commercial name                          : Dolby TrueHD
Codec ID                                 : A_TRUEHD
Duration                                 : 1 h 28 min
Bit rate mode                            : Variable
Bit rate                                 : 1 780 kb/s
Maximum bit rate                         : 3 069 kb/s
Channel(s)                               : 6 channels
Channel layout                           : L R C LFE Ls Rs
Sampling rate                            : 48.0 kHz
Frame rate                               : 1 200.000 FPS (40 SPF)
Bit depth                                : 24 bits
Compression mode                         : Lossless
Stream size                              : 1.10 GiB (6%)
Language                                 : English
Default                                  : Yes
Forced                                   : No
Original source medium                   : Blu-ray

Audio #2
ID                                       : 3
Format                                   : AC-3
Format/Info                              : Audio Coding 3
Commercial name                          : Dolby Digital
Codec ID                                 : A_AC3
Duration                                 : 1 h 28 min
Bit rate mode                            : Constant
Bit rate                                 : 448 kb/s
Channel(s)                               : 6 channels
Channel layout                           : L R C LFE Ls Rs
Sampling rate                            : 48.0 kHz
Frame rate                               : 31.250 FPS (1536 SPF)
Compression mode                         : Lossy
Stream size                              : 284 MiB (2%)
Language                                 : Polish
Service kind                             : Complete Main
Default                                  : Yes
Forced                                   : No

Text #1
ID                                       : 4
ID in the original source medium         : 4608 (0x1200)
Format                                   : PGS
Muxing mode                              : zlib
Codec ID                                 : S_HDMV/PGS
Codec ID/Info                            : Picture based subtitle format used on BDs/HD-DVDs
Duration                                 : 1 h 27 min
Bit rate                                 : 34.1 kb/s
Frame rate                               : 0.521 FPS
Count of elements                        : 2722
Stream size                              : 21.2 MiB (0%)
Language                                 : English
Default                                  : No
Forced                                   : No
Original source medium                   : Blu-ray

Text #2
ID                                       : 5
ID in the original source medium         : 4609 (0x1201)
Format                                   : PGS
Muxing mode                              : zlib
Codec ID                                 : S_HDMV/PGS
Codec ID/Info                            : Picture based subtitle format used on BDs/HD-DVDs
Duration                                 : 1 h 27 min
Bit rate                                 : 25.1 kb/s
Frame rate                               : 0.438 FPS
Count of elements                        : 2290
Stream size                              : 15.6 MiB (0%)
Language                                 : French
Default                                  : No
Forced                                   : No
Original source medium                   : Blu-ray

Text #3
ID                                       : 6
ID in the original source medium         : 4610 (0x1202)
Format                                   : PGS
Muxing mode                              : zlib
Codec ID                                 : S_HDMV/PGS
Codec ID/Info                            : Picture based subtitle format used on BDs/HD-DVDs
Duration                                 : 1 h 27 min
Bit rate                                 : 27.6 kb/s
Frame rate                               : 0.460 FPS
Count of elements                        : 2402
Stream size                              : 17.2 MiB (0%)
Language                                 : Spanish
Default                                  : No
Forced                                   : No
Original source medium                   : Blu-ray

Menu
00:00:00.000                             : en:Chapter 01
00:07:57.351                             : en:Chapter 02
00:13:41.070                             : en:Chapter 03
00:18:12.633                             : en:Chapter 04
00:20:09.416                             : en:Chapter 05
00:22:54.289                             : en:Chapter 06
00:28:18.988                             : en:Chapter 07
00:32:10.929                             : en:Chapter 08
00:37:03.429                             : en:Chapter 09
00:39:12.683                             : en:Chapter 10
00:41:45.252                             : en:Chapter 11
00:44:22.701                             : en:Chapter 12
00:47:20.712                             : en:Chapter 13
00:55:00.672                             : en:Chapter 14
00:58:14.949                             : en:Chapter 15
01:02:55.772                             : en:Chapter 16
01:04:59.937                             : en:Chapter 17
01:08:52.711                             : en:Chapter 18
01:15:07.169                             : en:Chapter 19
01:21:12.200                             : en:Chapter 20


Podgląd:


Wojownicze Żółwie Ninja III / Teenage Mutant Ninja Turtles III (1993) [17.76 GiB] [M/LP/DA/NPAM] [VC-1 24.2 Mb/s] [MLP FBA 1 757 kb/s - 3 168 kb/s] [AC-3 448 kb/s]

Szybki podgląd:
Polski tytuł: Wojownicze Żółwie Ninja III
Angielski tytuł: Teenage Mutant Ninja Turtles III
Rok premiery: 1993, Kategoria wiekowa: PG
Rozmiar: 17.76 GiB, Czas trwania: 1 h 35 min, Typ wydania: Bluray
Informacje językowe: Lektor Polski, Dubbing Angielski, Napisy Polskie, Napisy Angielskie, Napisy Multi

Writing library: libebml v1.4.5 + libmatroska v1.7.1
Writing application: mkvmerge v83.0 [64-bit], Format: Matroska, Version: Version 4
Video: #1, Format: VC-1, Codec ID: V_MS/VFW/FOURCC / WVC1, Bit rate: 24.2 Mb/s, Frame rate: 23.976 (24000/1001) FPS
Width: 1 920 pixels, Height: 1 080 pixels, Display aspect ratio: 16:9, Bit depth: 8 bits, Stream size: 16.2 GiB (91%)

Audio: #2, Format: AC-3, Codec ID: A_AC3, Bit rate: 448 kb/s, Sampling rate: 48.0 kHz
Commercial name: Dolby Digital, Language: Polish, Channel(s): 6 channels, Channel layout: L R C LFE Ls Rs, Stream size: 307 MiB (2%)

Audio: #1, Format: MLP FBA, Codec ID: A_TRUEHD, Bit rate: 1 757 kb/s, Sampling rate: 48.0 kHz, Bit depth: 24 bits
Commercial name: Dolby TrueHD, Language: English, Channel(s): 6 channels, Channel layout: L R C LFE Ls Rs, Stream size: 1.18 GiB (7%)

Text: #1, Language: English, Format: PGS, Codec ID: S_HDMV/PGS, Codec ID/Info: Picture based subtitle format used on BDs/HD-DVDs

Text: #2, Language: French, Format: PGS, Codec ID: S_HDMV/PGS, Codec ID/Info: Picture based subtitle format used on BDs/HD-DVDs

Informacje:
Tytuł: Wojownicze Żółwie Ninja III / Teenage Mutant Ninja Turtles III
Ocena: IMDB - 4.8/10 (36K), Filmweb - 6,1/10 (3 920)
Nagrody: 1 win
Reżyseria: Stuart Gillard
Scenariusz: Stuart Gillard
Gatunek: Familijny, Fantasy, Sztuki walki
Premiera: 19 marca 1993 (Świat)
Boxoffice: $42 273 609 w USA
Studio: Golden Harvest Company (przedstawia)  /  Clearwater Holdings
Budżet: $21 000 000
Na podstawie: Kevin Eastman  (postacie), /, Peter Laird  (postacie)

Opis:
Żółwie Ninja ruszają na ratunek swojej przyjaciółce, April, która nieumyślnie przeniosła się w czasie do siedemnastowiecznej Japonii, ogarniętej wojną partyzantów z feudalną władzą.

Większy opis:
April O'Neal (Paige Turco) nieopatrznie zakupiła, zupełnie nieszkodliwą jak się jej zdawało, pamiątkę z Japonii. Lecz kiedy niechcący uwolniła magiczne moce zamknięte w starodawnym berle zostaje przeniesiona o 400 lat w czasie, do siedemnastowiecznej Japonii, rządzonej przez bezwzględnego cesarza i wierną mu świtę wojowników. Leonrdo, Raphael, Donatello i Michaelangelo mogą przenieść się w przeszłość, pokonać zastępy samurajów, uratować April z rąk oprawców i wrócić do domu na czas póki pizza jeszcze nie ostygła!

Etykieta:

Obsada:
  • Elias Koteas jako Casey Jones
  • Paige Turco jako April O'Neil
  • Stuart Wilson jako Walker
  • Sab Shimono jako Lord Norinaga
  • Vivian Wu jako Mitsu
  • Mark Caso jako Leonardo
  • Matt Hill jako Raphael
  • Jim Raposa jako Donatello
  • David Fraser jako Michaelangelo
  • James Murray jako Splinter
  • Eidan Hanzei jako Kenshin, (as Henry Hayashi)
  • John Aylward jako Niles
  • Mak Takano jako Benkei - Honor Guard #1
  • Steve Akahoshi jako Honor Guard #2, (as Steven Getson Akahoshi)
  • Kent Kim jako Honor Guard #3
  • Ken Kensei jako Honor Guard #4
  • Travis A. Moon jako Yoshi
  • Tad Horino jako Grandfather

Dane techniczne:
Kod: (Teenage Mutant Ninja Turtles III (1993)) [Zaznacz]
General
Unique ID                                : 21494646745576829805736067290086217624 (0x102BB7E7D3712F548861A49F1DF39798)
Complete name                            : Teenage Mutant Ninja Turtles III (1993) [1080p] [VC-1] [MLP FBA] [BluRay] [Lektor PL].mkv
Format                                   : Matroska
Format version                           : Version 4
File size                                : 17.8 GiB
Duration                                 : 1 h 35 min
Overall bit rate mode                    : Variable
Overall bit rate                         : 26.5 Mb/s
Frame rate                               : 23.976 FPS
Encoded date                             : 2024-05-13 17:48:26 UTC
Writing application                      : mkvmerge v83.0 ('Circle Of Friends') 64-bit
Writing library                          : libebml v1.4.5 + libmatroska v1.7.1
Cover                                    : Yes
Attachments                              : cover.jpg

Video
ID                                       : 1
ID in the original source medium         : 4113 (0x1011)
Format                                   : VC-1
Format profile                           : Advanced@L3
Codec ID                                 : V_MS/VFW/FOURCC / WVC1
Codec ID/Hint                            : Microsoft
Duration                                 : 1 h 35 min
Bit rate                                 : 24.2 Mb/s
Width                                    : 1 920 pixels
Height                                   : 1 080 pixels
Display aspect ratio                     : 16:9
Frame rate mode                          : Constant
Frame rate                               : 23.976 (24000/1001) FPS
Color space                              : YUV
Chroma subsampling                       : 4:2:0
Bit depth                                : 8 bits
Scan type                                : Progressive
Compression mode                         : Lossy
Bits/(Pixel*Frame)                       : 0.488
Stream size                              : 16.2 GiB (91%)
Language                                 : English
Default                                  : No
Forced                                   : No
Original source medium                   : Blu-ray

Audio #1
ID                                       : 2
ID in the original source medium         : 4353 (0x1101)
Format                                   : MLP FBA
Format/Info                              : Meridian Lossless Packing FBA
Commercial name                          : Dolby TrueHD
Codec ID                                 : A_TRUEHD
Duration                                 : 1 h 35 min
Bit rate mode                            : Variable
Bit rate                                 : 1 757 kb/s
Maximum bit rate                         : 3 168 kb/s
Channel(s)                               : 6 channels
Channel layout                           : L R C LFE Ls Rs
Sampling rate                            : 48.0 kHz
Frame rate                               : 1 200.000 FPS (40 SPF)
Bit depth                                : 24 bits
Compression mode                         : Lossless
Stream size                              : 1.18 GiB (7%)
Language                                 : English
Default                                  : Yes
Forced                                   : No
Original source medium                   : Blu-ray

Audio #2
ID                                       : 3
Format                                   : AC-3
Format/Info                              : Audio Coding 3
Commercial name                          : Dolby Digital
Codec ID                                 : A_AC3
Duration                                 : 1 h 35 min
Bit rate mode                            : Constant
Bit rate                                 : 448 kb/s
Channel(s)                               : 6 channels
Channel layout                           : L R C LFE Ls Rs
Sampling rate                            : 48.0 kHz
Frame rate                               : 31.250 FPS (1536 SPF)
Compression mode                         : Lossy
Stream size                              : 307 MiB (2%)
Language                                 : Polish
Service kind                             : Complete Main
Default                                  : Yes
Forced                                   : No

Text #1
ID                                       : 4
ID in the original source medium         : 4608 (0x1200)
Format                                   : PGS
Muxing mode                              : zlib
Codec ID                                 : S_HDMV/PGS
Codec ID/Info                            : Picture based subtitle format used on BDs/HD-DVDs
Duration                                 : 1 h 35 min
Bit rate                                 : 31.5 kb/s
Frame rate                               : 0.502 FPS
Count of elements                        : 2864
Stream size                              : 21.4 MiB (0%)
Language                                 : English
Default                                  : No
Forced                                   : No
Original source medium                   : Blu-ray

Text #2
ID                                       : 5
ID in the original source medium         : 4609 (0x1201)
Format                                   : PGS
Muxing mode                              : zlib
Codec ID                                 : S_HDMV/PGS
Codec ID/Info                            : Picture based subtitle format used on BDs/HD-DVDs
Duration                                 : 1 h 35 min
Bit rate                                 : 28.0 kb/s
Frame rate                               : 0.451 FPS
Count of elements                        : 2580
Stream size                              : 19.1 MiB (0%)
Language                                 : French
Default                                  : No
Forced                                   : No
Original source medium                   : Blu-ray

Text #3
ID                                       : 6
ID in the original source medium         : 4610 (0x1202)
Format                                   : PGS
Muxing mode                              : zlib
Codec ID                                 : S_HDMV/PGS
Codec ID/Info                            : Picture based subtitle format used on BDs/HD-DVDs
Duration                                 : 1 h 35 min
Bit rate                                 : 27.9 kb/s
Frame rate                               : 0.455 FPS
Count of elements                        : 2602
Stream size                              : 19.0 MiB (0%)
Language                                 : Spanish
Default                                  : No
Forced                                   : No
Original source medium                   : Blu-ray

Menu
00:00:00.000                             : en:Chapter 01
00:06:49.075                             : en:Chapter 02
00:13:43.072                             : en:Chapter 03
00:17:19.788                             : en:Chapter 04
00:23:40.669                             : en:Chapter 05
00:29:05.201                             : en:Chapter 06
00:35:24.956                             : en:Chapter 07
00:40:20.751                             : en:Chapter 08
00:48:57.059                             : en:Chapter 09
00:50:21.059                             : en:Chapter 10
00:54:42.612                             : en:Chapter 11
00:57:59.851                             : en:Chapter 12
00:59:03.248                             : en:Chapter 13
01:01:47.537                             : en:Chapter 14
01:05:47.276                             : en:Chapter 15
01:10:38.192                             : en:Chapter 16
01:13:54.304                             : en:Chapter 17
01:16:40.971                             : en:Chapter 18
01:23:02.769                             : en:Chapter 19
01:30:32.093                             : en:Chapter 20


Podgląd:


Strefa Linków:
Przepraszamy, ale nie możesz zobaczyć ukrytej zawartości. Musisz się zalogować, aby zobaczyć tę zawartość.

Przepraszamy, ale nie możesz zobaczyć ukrytej zawartości. Musisz się zalogować, aby zobaczyć tę zawartość.

Nie masz uprawnień do przeglądania linków. Zarejestruj lub Zaloguj
Pierwszy post: Wojownicze Żółwie Ninja Trylogia / Teenage Mutant Ninja Turtles Trilogy (1990 - 1993) [52,87 GiB] [DA/LP/NA/NM/NP] [VC-1 24.2 Mb/s - 25.5 Mb/s] [MLP FBA 1 700 kb/s - 3 168 kb/s] [AAC LC 304 kb/s] [AC-3 448 kb/s]