TryHackX - Forum

Matrix Trylogia / The Matrix Trilogy (1999-2003) [54,90 GB] [LP] [HEVC 19.9 Mb/s] [AC-3 640 kb/s]

dominikk26

  • Administrator
  • Nowy użytkownik
  • *****
    • Wiadomości: 14
    • Reputacja +0/-0
    • Zobacz profil
Matrix Trylogia / The Matrix Trilogy (1999-2003) [54,90 GB] [LP] [HEVC 19.9 Mb/s] [AC-3 640 kb/s]

Szybki podgląd:
Polski tytuł: Matrix Trylogia - Matix, Matrix Reaktywacja, Matrix Rewolucje.
Angielski tytuł: The Matix Trilogy - The Matrix, The Matrix Reloaded, The Matrix Revolutions.
Rok premiery: 1999, 2003, 2003
Rozmiar: 54,90 GB, Czas trwania: 2 h 16 min - 2 h 18 min - 2 h 9 min, Typ wydania: BluRay
Informacje językowe: Dźwięk lektor Polski
Sorry but you are not allowed to view spoiler contents.

Writing library: libebml v1.3.9 + libmatroska v1.5.2 + x265 3.1.2

Format: HEVC, Codec ID: V_MPEGH/ISO/HEVC, Bit rate: 18.5 Mb/s - 18.3 Mb/s - 19.9 Mb/s, Original frame rate: 23.976 FPS
Width: 1 920 pixels, Height: 1 080 pixels, Display aspect ratio: 16:9, Stream size: 17.6 GiB (97%) - 17.6 GiB (97%) - 17.9 GiB (97%)

Audio: #1, Format: AC-3, Codec ID: A_AC3, Bit rate: 640 kb/s, Sampling rate: 48.0 kHz, Bit depth: 16 bits
Language: Polish, Channel(s): 6 channels, Channel layout: L R C LFE Ls Rs, Stream size: 624 MiB (3%) - 633 MiB - (3%) 592 MiB (3%)

Informacje:
Ogólne (1999 - 2003):
Reżyseria: Lilly Wachowski / Lana Wachowski
Scenariusz: Lilly Wachowski / Lana Wachowski
Gatunek: Akcja, Sci-Fi
Produkcja: Australia, USA
Matrix (1999):
Tytuł: Matrix / The Matrix
Ocena: IMDB - 8,7/10 (1 570 103), Filmweb - 7,5 (794 793)
Premiera: 13 Sierpnia 1999 (Polska), 24 marca 1999 (świat)
Box Office:: $63 000 000
Nagrody: 4 nagrody Oscar, 11 innych nagród i 25 nominacji
Matrix Reaktywacja (2003):
Tytuł: Matrix Reaktywacja / The Matrix Reloaded
Ocena: IMDB - 7,2/10 (491 549), Filmweb - 7,2/10 (223 234)
Premiera: 25 grudnia 2013 (Polska), 2 grudnia 2013 (świat)
Box Office:: $150 000 000
Nagrody: Teen Choice oraz 12 nominacji
Matix Rewolucje (2003):
Tytuł: Matix Rewolucje / The Matrix Revolutions
Ocena: IMDB - 6,7/10 (426 797), Filmweb - 7,1/10 (202 513)
Premiera: 25 grudnia 2014 (Polska), 1 grudnia 2014 (świat)
Box Office:: $150 000 000
Nagrody: 12 nominacji

Opis:
Matrix (1999):
Haker komputerowy Neo dowiaduje się od tajemniczych rebeliantów, że świat, w którym żyje, jest tylko obrazem przesyłanym do jego mózgu przez roboty.
Matrix Reaktywacja (2003):
Maszyny chcą zniszczyć Syjon. Neo wyrusza z misją ocalenia ostatniego miasta ludzi.
Matrix Rewolucje (2003):
Zbuntowany program Smith rozpoczyna przejmowanie kontroli w Matrixie, a armia maszyn zbliża się do Syjonu. Jedyną nadzieją na ratunek jest Neo.

Etykieta: (Czasami należy się zalogować aby zobaczyć)


Obsada:
Keanu Reeves   ...   Neo
Laurence Fishburne   ...   Morpheus
Carrie-Anne Moss   ...   Trinity
Hugo Weaving   ...   Agent Smith
Gloria Foster   ...   Oracle
Joe Pantoliano   ...   Cypher
Marcus Chong   ...   Tank
Julian Arahanga   ...   Apoc
Matt Doran   ...   Mouse
Belinda McClory   ...   Switch
Anthony Ray Parker   ...   Dozer
Paul Goddard   ...   Agent Brown
Robert Taylor   ...   Agent Jones
David Aston   ...   Rhineheart
Marc Aden Gray   ...   Choi (as Marc Gray)
Christine Anu   ...   Kali
Andy Arness   ...   Police #2
Alima Ashton-Sheibu   ...   Link's Niece
Helmut Bakaitis   ...   The Architect
Steve Bastoni   ...   Soren
Don Battee   ...   Vector (as Don Batte)
Monica Bellucci   ...   Persephone
Daniel Bernhardt   ...   Agent Johnson
Valerie Berry   ...   Priestess
Ian Bliss   ...   Bane
Liliana Bogatko   ...   Old Woman at Zion
Michael Budd   ...   Zion Controller
Stoney Burke   ...   Bike Carrier Driver
Kelly Butler   ...   Ice
Mary Alice   ...   The Oracle
Tanveer K. Atwal   ...   Sati
Kate Beahan   ...   Coat Check Girl
Francine Bell   ...   Councillor Grace
Rachel Blackman   ...   Charra
Henry Blasingame   ...   Deus Ex Machina
David Bowers   ...   Q-Ball Gang Member #1
Zeke Castelli   ...   Operations Officer Mattis
Collin Chou   ...   Seraph
Essie Davis   ...   Maggie
Nona Gaye   ...   Zee

Informacje dodatkowe:
Jest to zrzutka z bluray 4k, HEVC 1 920 pixels x 1080 pixels oraz ogólnym średnim bitrate 18.9 Mb/s - 20.5 Mb/s oraz AC-3 - bitrate 640 kb/s, 48.0 kHz, 6 channels.

Dane techniczne:
Kod: (The Matrix (1999)) You are not allowed to view links. Register or Login
General
General
Unique ID                                : 299965554219172934831160403466404541279 (0xE1AB43AA2EEFE742860424441124B35F)
Complete name                            : The Matrix (1999) 1080p.BluRay.UHD.HEVC.DolbyDigital.6 Channels.mkv
Format                                   : Matroska
Format version                           : Version 4
File size                                : 18.2 GiB
Duration                                 : 2 h 16 min
Overall bit rate                         : 19.1 Mb/s
Encoded date                             : UTC 2019-12-17 21:10:18
Writing application                      : mkvmerge v41.0.0 ('Smarra') 64-bit
Writing library                          : libebml v1.3.9 + libmatroska v1.5.2

Video
ID                                       : 1
Format                                   : HEVC
Format/Info                              : High Efficiency Video Coding
Format profile                           : Main@L4@High
Codec ID                                 : V_MPEGH/ISO/HEVC
Duration                                 : 2 h 16 min
Bit rate                                 : 18.5 Mb/s
Width                                    : 1 920 pixels
Height                                   : 1 080 pixels
Display aspect ratio                     : 16:9
Frame rate mode                          : Constant
Frame rate                               : 23.976 (24000/1001) FPS
Color space                              : YUV
Chroma subsampling                       : 4:2:0
Bit depth                                : 8 bits
Bits/(Pixel*Frame)                       : 0.371
Stream size                              : 17.6 GiB (97%)
Writing library                          : x265 3.1.2:[Windows][MSVC 1900][64 bit] 8bit
Encoding settings                        : cpuid=1111039 / frame-threads=4 / numa-pools=16 / wpp / no-pmode / no-pme / no-psnr / no-ssim / log-level=2 / input-csp=1 / input-res=1920x1080 / interlace=0 / total-frames=0 / level-idc=0 / high-tier=1 / uhd-bd=0 / ref=3 / no-allow-non-conformance / no-repeat-headers / annexb / no-aud / no-hrd / info / hash=0 / no-temporal-layers / open-gop / min-keyint=25 / keyint=250 / gop-lookahead=0 / bframes=3 / b-adapt=1 / b-pyramid / bframe-bias=0 / rc-lookahead=40 / lookahead-slices=6 / scenecut=40 / radl=0 / no-splice / no-intra-refresh / ctu=64 / min-cu-size=8 / no-rect / no-amp / max-tu-size=32 / tu-inter-depth=1 / tu-intra-depth=1 / limit-tu=0 / rdoq-level=0 / dynamic-rd=0.00 / no-ssim-rd / signhide / no-tskip / nr-intra=0 / nr-inter=0 / no-constrained-intra / strong-intra-smoothing / max-merge=3 / limit-refs=1 / no-limit-modes / me=3 / subme=5 / merange=16 / temporal-mvp / weightp / weightb / no-analyze-src-pics / deblock=0:0 / sao / no-sao-non-deblock / rd=3 / early-skip / rskip / no-fast-intra / no-tskip-fast / no-cu-lossless / b-intra / no-splitrd-skip / rdpenalty=0 / psy-rd=1.00 / psy-rdoq=0.00 / no-rd-refine / no-lossless / cbqpoffs=0 / crqpoffs=0 / rc=abr / bitrate=18432 / qcomp=0.60 / qpstep=4 / stats-write=0 / stats-read=0 / ipratio=1.40 / pbratio=1.30 / aq-mode=2 / aq-strength=1.00 / cutree / zone-count=0 / no-strict-cbr / qg-size=32 / no-rc-grain / qpmax=69 / qpmin=0 / no-const-vbv / sar=0 / overscan=0 / videoformat=5 / range=0 / colorprim=2 / transfer=2 / colormatrix=2 / chromaloc=0 / display-window=0cll=0,0 / min-luma=0 / max-luma=255 / log2-max-poc-lsb=8 / vui-timing-info / vui-hrd-info / slices=1 / no-opt-qp-pps / no-opt-ref-list-length-pps / no-multi-pass-opt-rps / scenecut-bias=0.05 / no-opt-cu-delta-qp / no-aq-motion / no-hdr / no-hdr-opt / no-dhdr10-opt / no-idr-recovery-sei / analysis-reuse-level=5 / scale-factor=0 / refine-intra=0 / refine-inter=0 / refine-mv=0 / refine-ctu-distortion=0 / no-limit-sao / ctu-info=0 / no-lowpass-dct / refine-analysis-type=0 / copy-pic=1 / max-ausize-factor=1.0 / no-dynamic-refine / no-single-sei / no-hevc-aq / no-svt / no-field / qp-adaptation-range=1.00
Default                                  : Yes
Forced                                   : No

Audio
ID                                       : 2
Format                                   : AC-3
Format/Info                              : Audio Coding 3
Commercial name                          : Dolby Digital
Codec ID                                 : A_AC3
Duration                                 : 2 h 16 min
Bit rate mode                            : Constant
Bit rate                                 : 640 kb/s
Channel(s)                               : 6 channels
Channel layout                           : L R C LFE Ls Rs
Sampling rate                            : 48.0 kHz
Frame rate                               : 31.250 FPS (1536 SPF)
Bit depth                                : 16 bits
Compression mode                         : Lossy
Stream size                              : 624 MiB (3%)
Language                                 : Polish
Service kind                             : Complete Main
Default                                  : Yes
Forced                                   : No
Kod: (The Matrix Reloaded (2003)) You are not allowed to view links. Register or Login
General
Unique ID                                : 316356379216597783536515651064183286856 (0xEE0005BAE6634499D808434486726C48)
Complete name                            : The Matrix Reloaded (2003) 1080p.BluRay.UHD.HEVC.DolbyDigital.6 Channels.mkv
Format                                   : Matroska
Format version                           : Version 4
File size                                : 18.3 GiB
Duration                                 : 2 h 18 min
Overall bit rate                         : 18.9 Mb/s
Encoded date                             : UTC 2019-12-16 18:03:33
Writing application                      : mkvmerge v41.0.0 ('Smarra') 64-bit
Writing library                          : libebml v1.3.9 + libmatroska v1.5.2

Video
ID                                       : 1
Format                                   : HEVC
Format/Info                              : High Efficiency Video Coding
Format profile                           : Main@L4@High
Codec ID                                 : V_MPEGH/ISO/HEVC
Duration                                 : 2 h 18 min
Bit rate                                 : 18.3 Mb/s
Width                                    : 1 920 pixels
Height                                   : 1 080 pixels
Display aspect ratio                     : 16:9
Frame rate mode                          : Constant
Frame rate                               : 23.976 (24000/1001) FPS
Color space                              : YUV
Chroma subsampling                       : 4:2:0
Bit depth                                : 8 bits
Bits/(Pixel*Frame)                       : 0.367
Stream size                              : 17.6 GiB (97%)
Writing library                          : x265 3.1.2:[Windows][MSVC 1900][64 bit] 8bit
Encoding settings                        : cpuid=1111039 / frame-threads=4 / numa-pools=16 / wpp / no-pmode / no-pme / no-psnr / no-ssim / log-level=2 / input-csp=1 / input-res=1920x1080 / interlace=0 / total-frames=0 / level-idc=0 / high-tier=1 / uhd-bd=0 / ref=3 / no-allow-non-conformance / no-repeat-headers / annexb / no-aud / no-hrd / info / hash=0 / no-temporal-layers / open-gop / min-keyint=25 / keyint=250 / gop-lookahead=0 / bframes=3 / b-adapt=1 / b-pyramid / bframe-bias=0 / rc-lookahead=40 / lookahead-slices=6 / scenecut=40 / radl=0 / no-splice / no-intra-refresh / ctu=64 / min-cu-size=8 / no-rect / no-amp / max-tu-size=32 / tu-inter-depth=1 / tu-intra-depth=1 / limit-tu=0 / rdoq-level=0 / dynamic-rd=0.00 / no-ssim-rd / signhide / no-tskip / nr-intra=0 / nr-inter=0 / no-constrained-intra / strong-intra-smoothing / max-merge=3 / limit-refs=1 / no-limit-modes / me=3 / subme=5 / merange=16 / temporal-mvp / weightp / weightb / no-analyze-src-pics / deblock=0:0 / sao / no-sao-non-deblock / rd=3 / early-skip / rskip / no-fast-intra / no-tskip-fast / no-cu-lossless / b-intra / no-splitrd-skip / rdpenalty=0 / psy-rd=1.00 / psy-rdoq=0.00 / no-rd-refine / no-lossless / cbqpoffs=0 / crqpoffs=0 / rc=abr / bitrate=18432 / qcomp=0.60 / qpstep=4 / stats-write=0 / stats-read=0 / ipratio=1.40 / pbratio=1.30 / aq-mode=2 / aq-strength=1.00 / cutree / zone-count=0 / no-strict-cbr / qg-size=32 / no-rc-grain / qpmax=69 / qpmin=0 / no-const-vbv / sar=0 / overscan=0 / videoformat=5 / range=0 / colorprim=2 / transfer=2 / colormatrix=2 / chromaloc=0 / display-window=0cll=0,0 / min-luma=0 / max-luma=255 / log2-max-poc-lsb=8 / vui-timing-info / vui-hrd-info / slices=1 / no-opt-qp-pps / no-opt-ref-list-length-pps / no-multi-pass-opt-rps / scenecut-bias=0.05 / no-opt-cu-delta-qp / no-aq-motion / no-hdr / no-hdr-opt / no-dhdr10-opt / no-idr-recovery-sei / analysis-reuse-level=5 / scale-factor=0 / refine-intra=0 / refine-inter=0 / refine-mv=0 / refine-ctu-distortion=0 / no-limit-sao / ctu-info=0 / no-lowpass-dct / refine-analysis-type=0 / copy-pic=1 / max-ausize-factor=1.0 / no-dynamic-refine / no-single-sei / no-hevc-aq / no-svt / no-field / qp-adaptation-range=1.00
Default                                  : Yes
Forced                                   : No

Audio
ID                                       : 2
Format                                   : AC-3
Format/Info                              : Audio Coding 3
Commercial name                          : Dolby Digital
Codec ID                                 : A_AC3
Duration                                 : 2 h 18 min
Bit rate mode                            : Constant
Bit rate                                 : 640 kb/s
Channel(s)                               : 6 channels
Channel layout                           : L R C LFE Ls Rs
Sampling rate                            : 48.0 kHz
Frame rate                               : 31.250 FPS (1536 SPF)
Bit depth                                : 16 bits
Compression mode                         : Lossy
Stream size                              : 633 MiB (3%)
Language                                 : Polish
Service kind                             : Complete Main
Default                                  : Yes
Forced                                   : No
Kod: (The Matrix Revolutions (2003)) You are not allowed to view links. Register or Login
General
Unique ID                                : 219086087140363014444479323932387700073 (0xA4D272105DB37A4142107FE61B7FED69)
Complete name                            : The Matrix Revolutions (2003) 1080p.BluRay.UHD.HEVC.DolbyDigital.6 Channels.mkv
Format                                   : Matroska
Format version                           : Version 4
File size                                : 18.5 GiB
Duration                                 : 2 h 9 min
Overall bit rate                         : 20.5 Mb/s
Encoded date                             : UTC 2019-12-15 16:08:05
Writing application                      : mkvmerge v41.0.0 ('Smarra') 64-bit
Writing library                          : libebml v1.3.9 + libmatroska v1.5.2

Video
ID                                       : 1
Format                                   : HEVC
Format/Info                              : High Efficiency Video Coding
Format profile                           : Main@L4@High
Codec ID                                 : V_MPEGH/ISO/HEVC
Duration                                 : 2 h 9 min
Bit rate                                 : 19.9 Mb/s
Width                                    : 1 920 pixels
Height                                   : 1 080 pixels
Display aspect ratio                     : 16:9
Frame rate mode                          : Constant
Frame rate                               : 23.976 (24000/1001) FPS
Color space                              : YUV
Chroma subsampling                       : 4:2:0
Bit depth                                : 8 bits
Bits/(Pixel*Frame)                       : 0.400
Stream size                              : 17.9 GiB (97%)
Writing library                          : x265 3.1.2:[Windows][MSVC 1900][64 bit] 8bit
Encoding settings                        : cpuid=1111039 / frame-threads=4 / numa-pools=16 / wpp / no-pmode / no-pme / no-psnr / no-ssim / log-level=2 / input-csp=1 / input-res=1920x1080 / interlace=0 / total-frames=0 / level-idc=0 / high-tier=1 / uhd-bd=0 / ref=3 / no-allow-non-conformance / no-repeat-headers / annexb / no-aud / no-hrd / info / hash=0 / no-temporal-layers / open-gop / min-keyint=25 / keyint=250 / gop-lookahead=0 / bframes=3 / b-adapt=1 / b-pyramid / bframe-bias=0 / rc-lookahead=40 / lookahead-slices=6 / scenecut=40 / radl=0 / no-splice / no-intra-refresh / ctu=64 / min-cu-size=8 / no-rect / no-amp / max-tu-size=32 / tu-inter-depth=1 / tu-intra-depth=1 / limit-tu=0 / rdoq-level=0 / dynamic-rd=0.00 / no-ssim-rd / signhide / no-tskip / nr-intra=0 / nr-inter=0 / no-constrained-intra / strong-intra-smoothing / max-merge=3 / limit-refs=1 / no-limit-modes / me=3 / subme=5 / merange=16 / temporal-mvp / weightp / weightb / no-analyze-src-pics / deblock=0:0 / sao / no-sao-non-deblock / rd=3 / early-skip / rskip / no-fast-intra / no-tskip-fast / no-cu-lossless / b-intra / no-splitrd-skip / rdpenalty=0 / psy-rd=1.00 / psy-rdoq=0.00 / no-rd-refine / no-lossless / cbqpoffs=0 / crqpoffs=0 / rc=abr / bitrate=20480 / qcomp=0.60 / qpstep=4 / stats-write=0 / stats-read=0 / ipratio=1.40 / pbratio=1.30 / aq-mode=2 / aq-strength=1.00 / cutree / zone-count=0 / no-strict-cbr / qg-size=32 / no-rc-grain / qpmax=69 / qpmin=0 / no-const-vbv / sar=0 / overscan=0 / videoformat=5 / range=0 / colorprim=2 / transfer=2 / colormatrix=2 / chromaloc=0 / display-window=0cll=0,0 / min-luma=0 / max-luma=255 / log2-max-poc-lsb=8 / vui-timing-info / vui-hrd-info / slices=1 / no-opt-qp-pps / no-opt-ref-list-length-pps / no-multi-pass-opt-rps / scenecut-bias=0.05 / no-opt-cu-delta-qp / no-aq-motion / no-hdr / no-hdr-opt / no-dhdr10-opt / no-idr-recovery-sei / analysis-reuse-level=5 / scale-factor=0 / refine-intra=0 / refine-inter=0 / refine-mv=0 / refine-ctu-distortion=0 / no-limit-sao / ctu-info=0 / no-lowpass-dct / refine-analysis-type=0 / copy-pic=1 / max-ausize-factor=1.0 / no-dynamic-refine / no-single-sei / no-hevc-aq / no-svt / no-field / qp-adaptation-range=1.00
Default                                  : Yes
Forced                                   : No

Audio
ID                                       : 2
Format                                   : AC-3
Format/Info                              : Audio Coding 3
Commercial name                          : Dolby Digital
Codec ID                                 : A_AC3
Duration                                 : 2 h 9 min
Bit rate mode                            : Constant
Bit rate                                 : 640 kb/s
Channel(s)                               : 6 channels
Channel layout                           : L R C LFE Ls Rs
Sampling rate                            : 48.0 kHz
Frame rate                               : 31.250 FPS (1536 SPF)
Bit depth                                : 16 bits
Compression mode                         : Lossy
Stream size                              : 592 MiB (3%)
Language                                 : Polish
Service kind                             : Complete Main
Default                                  : Yes
Forced                                   : No

Podgląd:

Download:
Sorry but you are not allowed to view spoiler contents.

You are not allowed to view links. Register or Login
You are not allowed to view links. Register or Login

Warezy:
Sorry but you are not allowed to view spoiler contents.
« Ostatnia zmiana: Styczeń 27, 2020, 01:08:07 am wysłana przez dominikk26 »