TryHackX - Forum

Król Lew / The Lion King (2019) [24,90 GB] [M/DP/NP] [AVC 35.0 Mb/s] [DTS XBR 2 046 kb/s] [AC-3 640 kb/s]

Offline TryHackX

  • Administrator
  • Nowy użytkownik
  • *****
    • Wiadomości: 17
    • Reputacja +0/-0
    • Zobacz profil
Król Lew / The Lion King (2019) [24,90 GB] [M/DP/NP] [AVC 35.0 Mb/s] [DTS XBR 2 046 kb/s] [AC-3 640 kb/s]

Szybki podgląd:
Polski tytuł: Król Lew
Angielski tytuł: The Lion King
Rok premiery: 2019
Rozmiar: 24,9 GB, Czas trwania: 1 h 58 min, Typ wydania: BluRay
Informacje językowe: Dźwięk Angielski, Dźwięk dubbing Polski, Napisy Polskie.
Przepraszamy, ale nie możesz zobaczyć ukrytej zawartości. Musisz się zalogować, aby zobaczyć tę zawartość.

Writing library: libebml v1.3.10 + libmatroska v1.5.2

Format: AVC, Codec ID: V_MPEG4/ISO/AVC, Bit rate: 27.6 Mb/s, Maximum bit rate: 35.0 Mb/s, Original frame rate: 23.976 FPS
Width: 1 920 pixels, Height: 1 080 pixels, Display aspect ratio: 16:9, Bit depth: 8 bits, Stream size: 22.8 GiB (91%)

Audio: #1, Format: DTS XBR, Codec ID: A_DTS, Bit rate: 2 046 kb/s, Sampling rate: 48.0 kHz, Bit depth: 24 bits
Language: English, Channel(s): 8 channels, Channel layout: C L R LFE Lb Rb Lss Rss, Stream size: 1.69 GiB (7%)

Audio: #2, Format: AC-3, Codec ID: A_AC3, Bit rate: 640 kb/s, Sampling rate: 48.0 kHz, Bit depth: 16 bits
Language: Polish, Channel(s): 6 channels, Channel layout: L R C LFE Ls Rs, Stream size: 541 MiB (2%)

Text: #1, Language: Polish, Format: UTF-8, Codec ID: S_TEXT/UTF8

Informacje:
Tytuł: Król Lew / The Lion King
Ocena: IMDB - 6,9/10 (235 922), Filmweb - 7,3/10 (81 493)
Reżyseria: Jon Favreau
Scenariusz: Jeff Nathanson
Gatunek: Animowany / Przygodowy
Produkcja: USA
Premiera: 19 lipca 2019 (Polska) 12 lipca 2019 (świat)
Box Office: $1 662 899 439 na świecie

Opis:
Simba jest młodym, prawowitym następcą tronu po swoim ojcu – królu Mufasie. Jednak nie wszyscy mieszkańcy królestwa cieszą się z jego narodzin. Następcą Mufasy był bowiem dotąd jego brat – Skaza, który nie zamierza tak łatwo oddać władzy. Knując spisek i posuwając się do zdrady, doprowadza do tragedii, w wyniku której to jemu przypada w udziale tron. Simba zostaje wygnany, ale pozostając wierny naukom swojego ojca, Mufasy, bierze sobie do serca swoje królewskie przeznaczenie. Z pomocą dwójki nowopoznanych przyjaciół zamierza odzyskać należne dziedzictwo. Wcześniej musi jednak odszukać swoją drogę ku dorosłości.

Etykieta: (Czasami należy się zalogować aby zobaczyć)


Obsada:
Donald Glover jako Simba
Beyoncé jako Nala
Seth Rogen jako Pumbaa
Chiwetel Ejiofor jako Scar
John Oliver jako Zazu
James Earl Jones jako Mufjakoa
John Kani jako Rafiki
Alfre Woodard jako Sarabi
JD McCrary jako Young Simba
Shahadi Wright Joseph jako Young Nala
Penny Johnson Jerald jako Sarafina
Keegan-Michael Key jako Kamari
Eric André jako Azizi
Florence Kjakoumba jako Shenzi
Billy Eichner jako Timon
Amy Sedaris jako Guinea Fowl
Chance the Rapper jako Bush Baby
Josh McCrary jako Elephant Shrew

Informacje dodatkowe:
Zrzutka z oryginalnego 4k bluray, przekonwertowane do 1080p wysokiej jakości.

Dane techniczne:
Kod: You are not allowed to view links. Register or Login
General
Unique ID                                : 277606541399265214300536313406951869734 (0xD0D91338B22BA2ED600C231281954D26)
Complete name                            : Król Lew (2019) DTS 8 Chanals 1080p [PL] [ENG].mkv
Format                                   : Matroska
Format version                           : Version 4
File size                                : 25.0 GiB
Duration                                 : 1 h 58 min
Overall bit rate mode                    : Variable
Overall bit rate                         : 30.3 Mb/s
Encoded date                             : UTC 2020-02-06 17:04:31
Writing application                      : mkvmerge v43.0.0 ('The Quartermaster') 64-bit
Writing library                          : libebml v1.3.10 + libmatroska v1.5.2

Video
ID                                       : 1
Format                                   : AVC
Format/Info                              : Advanced Video Codec
Format profile                           : High@L4.1
Format settings                          : CABAC / 4 Ref Frames
Format settings, CABAC                   : Yes
Format settings, Reference frames        : 4 frames
Codec ID                                 : V_MPEG4/ISO/AVC
Duration                                 : 1 h 58 min
Bit rate mode                            : Variable
Bit rate                                 : 27.6 Mb/s
Maximum bit rate                         : 35.0 Mb/s
Width                                    : 1 920 pixels
Height                                   : 1 080 pixels
Display aspect ratio                     : 16:9
Frame rate mode                          : Constant
Frame rate                               : 23.976 (24000/1001) FPS
Color space                              : YUV
Chroma subsampling                       : 4:2:0
Bit depth                                : 8 bits
Scan type                                : Progressive
Bits/(Pixel*Frame)                       : 0.554
Stream size                              : 22.8 GiB (91%)
Default                                  : Yes
Forced                                   : No

Audio #1
ID                                       : 2
Format                                   : DTS XBR
Format/Info                              : Digital Theater Systems
Commercial name                          : DTS-HD High Resolution Audio
Codec ID                                 : A_DTS
Duration                                 : 1 h 58 min
Bit rate mode                            : Constant
Bit rate                                 : 2 046 kb/s
Channel(s)                               : 8 channels
Channel layout                           : C L R LFE Lb Rb Lss Rss
Sampling rate                            : 48.0 kHz
Frame rate                               : 93.750 FPS (512 SPF)
Bit depth                                : 24 bits
Compression mode                         : Lossy
Stream size                              : 1.69 GiB (7%)
Language                                 : English
Default                                  : Yes
Forced                                   : No

Audio #2
ID                                       : 3
Format                                   : AC-3
Format/Info                              : Audio Coding 3
Commercial name                          : Dolby Digital
Codec ID                                 : A_AC3
Duration                                 : 1 h 58 min
Bit rate mode                            : Constant
Bit rate                                 : 640 kb/s
Channel(s)                               : 6 channels
Channel layout                           : L R C LFE Ls Rs
Sampling rate                            : 48.0 kHz
Frame rate                               : 31.250 FPS (1536 SPF)
Compression mode                         : Lossy
Stream size                              : 541 MiB (2%)
Language                                 : Polish
Service kind                             : Complete Main
Default                                  : No
Forced                                   : No

Text
ID                                       : 4
Format                                   : UTF-8
Codec ID                                 : S_TEXT/UTF8
Codec ID/Info                            : UTF-8 Plain Text
Duration                                 : 1 h 46 min
Bit rate                                 : 47 b/s
Count of elements                        : 1342
Stream size                              : 37.2 KiB (0%)
Language                                 : Polish
Default                                  : Yes
Forced                                   : No

Podgląd:

Download:
Przepraszamy, ale nie możesz zobaczyć ukrytej zawartości. Musisz się zalogować, aby zobaczyć tę zawartość.

You are not allowed to view links. Register or Login
You are not allowed to view links. Register or Login

Warezy:
Przepraszamy, ale nie możesz zobaczyć ukrytej zawartości. Musisz się zalogować, aby zobaczyć tę zawartość.
« Ostatnia zmiana: Sierpnia 01, 2022, 01:37:19 pm wysłana przez TryHackX »