TryHackX - Forum

Filmy => Dramatyczne => Full HD (1080p) => Wątek zaczęty przez: dominikk26 w Grudzień 31, 2019, 10:12:25 pm

Tytuł: Ocalony / Lone Survivor (2013) [13.49 GB] [M/LP/NP] [AVC 15Mb/s] [AC-3 448kb/s]
Wiadomość wysłana przez: dominikk26 w Grudzień 31, 2019, 10:12:25 pm
Ocalony / Lone Survivor (2013) [13.49 GB] [M/LP/NP] [AVC 15Mb/s] [AC-3 448kb/s]

Szybki podgląd:
Polski tytuł: Ocalony
Angielski tytuł: Lone Survivor
Rok premiery: 2013
Rozmiar: 13.49 GB, Czas trwania: 2 h 1 min, Typ wydania: BluRay
Informacje językowe: Dźwięk Angielski, Dźwięk lektor Polski, Napisy Angielskie, Napisy Polskie.
Sorry but you are not allowed to view spoiler contents.

Writing library: x264 core 132 + Lavc58.54.100 ac3

Format: AVC, Codec ID: V_MPEG4/ISO/AVC, Bit rate: 15.0 Mb/s, Original frame rate: 23.976 FPS
Width: 1 920 pixels, Height: 800 pixels, Display aspect ratio: 2.40:1 Stream size: 12.5 GiB (92%)

Audio: #1, Format: AC-3, Codec ID: A_AC3, Bit rate: 448 kb/s, Sampling rate: 48.0 kHz, Bit depth: 16 bits
Language: Polish, Channel(s): 6 channels, Channel layout: L R C LFE Ls Rs, Stream size: 389 MiB (3%)

Audio: #2, Format: AC-3, Codec ID: A_AC3, Bit rate: 448 kb/s, Sampling rate: 48.0 kHz, Bit depth: 16 bits
Language: English, Channel(s): 6 channels, Channel layout: L R C LFE Ls Rs, Stream size: 389 MiB (3%)

Text: #1, Language: Polish, Format: UTF-8
Text: #2, Language: English, Format: PGS

Informacje:
Tytuł: Ocalony / Lone Survivor
Ocena: IMDB - 7.5/10 (252 079), Filmweb - 7.5/10 (78 668)
Reżyseria: Peter Berg
Scenariusz: Peter Berg
Gatunek: Dramat, Wojenny
Produkcja: USA
Premiera: 14 marca 2014 (Polska) 12 listopada 2013 (świat)
Boxoffice: $149 836 645
Nagrody: Critics' Choice Critics' Choice Aktor oraz 11 nominacji

Opis:
Afganistan, 28 czerwca 2005 roku, czterech członków SEAL Team 10 otrzymuje zadanie zabicia lidera talibów. Niespodziewanie sami zostają otoczeni przez wroga i zaatakowani.

Etykieta: (Czasami należy się zalogować aby zobaczyć)
(https://tryhackx.org/index.php?action=dlattach;topic=4.0;attach=2)

Obsada:
Mark Wahlberg jako Marcus Luttrell
Taylor Kitsch jako Michael P. Murphy
Emile Hirsch jako Danny Dietz
Ben Foster jako Matt Axelson
Yousuf Azami jako Ahmed Shahd
Ali Suliman jako Gulab
Eric Bana jako komandor porucznik Erik S. Kristensen
Alexander Ludwig jako Shane Patton

Informacje dodatkowe:
Jest to zrzutka z bluray, AVC 1 920 pixels x 800 pixels oraz ogólnym bitrate 15.9 Mb/s oraz AC-3 bitrate 448 kb/s, 48.0 kHz, 6 channels.

Oryginalny dźwięk był w DTS prze konwertowałem go do AC3 oraz podbiłem głośność za pomocą polecenia:
ffmpeg.exe -i raw.mkv -map 0 -vcodec copy -scodec copy -acodec ac3 -filter:a "volume=1.9" newvideo.mkv

Dane techniczne:
Kod: You are not allowed to view links. Register or Login
General
Unique ID                                : 336649919599383436199556193262367991329 (0xFD446A85158182031B5544C60424E621)
Complete name                            : Lone.Survivor.2013.MULTi.1080p.BluRay.x264.AC3.6ch.mkv
Format                                   : Matroska
Format version                           : Version 4
File size                                : 13.5 GiB
Duration                                 : 2 h 1 min
Overall bit rate                         : 15.9 Mb/s
Movie name                               : Lone.Survivor.2013.V2.MULTi.1080p.BluRay.x264.DTS-DENDA
Writing application                      : Lavf58.29.100
Writing library                          : Lavf58.29.100
ErrorDetectionType                       : Per level 1

Video
ID                                       : 1
Format                                   : AVC
Format/Info                              : Advanced Video Codec
Format profile                           : High@L4.1
Format settings                          : CABAC / 4 Ref Frames
Format settings, CABAC                   : Yes
Format settings, ReFrames                : 4 frames
Codec ID                                 : V_MPEG4/ISO/AVC
Duration                                 : 2 h 1 min
Bit rate                                 : 15.0 Mb/s
Width                                    : 1 920 pixels
Height                                   : 800 pixels
Display aspect ratio                     : 2.40:1
Frame rate mode                          : Variable
Original frame rate                      : 23.976 FPS
Color space                              : YUV
Chroma subsampling                       : 4:2:0
Bit depth                                : 8 bits
Scan type                                : Progressive
Bits/(Pixel*Frame)                       : 0.407
Stream size                              : 12.5 GiB (92%)
Writing library                          : x264 core 132
Encoding settings                        : cabac=1 / ref=4 / deblock=1:0:0 / analyse=0x3:0x113 / me=hex / subme=7 / psy=1 / psy_rd=1,00:0,00 / mixed_ref=1 / me_range=16 / chroma_me=1 / trellis=1 / 8x8dct=1 / cqm=0 / deadzone=21,11 / fast_pskip=1 / chroma_qp_offset=-2 / threads=12 / lookahead_threads=4 / sliced_threads=0 / nr=0 / decimate=1 / interlaced=0 / bluray_compat=0 / constrained_intra=0 / bframes=8 / b_pyramid=2 / b_adapt=2 / b_bias=0 / direct=1 / weightb=1 / open_gop=0 / weightp=2 / keyint=240 / keyint_min=24 / scenecut=40 / intra_refresh=0 / rc_lookahead=50 / rc=2pass / mbtree=1 / bitrate=15000 / ratetol=1,0 / qcomp=0,60 / qpmin=3 / qpmax=69 / qpstep=4 / cplxblur=20,0 / qblur=0,5 / ip_ratio=1,40 / aq=1:1,00
Language                                 : English
Default                                  : Yes
Forced                                   : No
Color range                              : Limited
Color primaries                          : BT.709
Transfer characteristics                 : BT.709
Matrix coefficients                      : BT.709

Audio #1
ID                                       : 2
Format                                   : AC-3
Format/Info                              : Audio Coding 3
Commercial name                          : Dolby Digital
Codec ID                                 : A_AC3
Duration                                 : 2 h 1 min
Bit rate mode                            : Constant
Bit rate                                 : 448 kb/s
Channel(s)                               : 6 channels
Channel layout                           : L R C LFE Ls Rs
Sampling rate                            : 48.0 kHz
Frame rate                               : 31.250 FPS (1536 SPF)
Bit depth                                : 16 bits
Compression mode                         : Lossy
Stream size                              : 389 MiB (3%)
Writing library                          : Lavc58.54.100 ac3
Language                                 : Polish
Service kind                             : Complete Main
Default                                  : Yes
Forced                                   : Yes

Audio #2
ID                                       : 3
Format                                   : AC-3
Format/Info                              : Audio Coding 3
Commercial name                          : Dolby Digital
Codec ID                                 : A_AC3
Duration                                 : 2 h 1 min
Bit rate mode                            : Constant
Bit rate                                 : 448 kb/s
Channel(s)                               : 6 channels
Channel layout                           : L R C LFE Ls Rs
Sampling rate                            : 48.0 kHz
Frame rate                               : 31.250 FPS (1536 SPF)
Bit depth                                : 16 bits
Compression mode                         : Lossy
Stream size                              : 389 MiB (3%)
Writing library                          : Lavc58.54.100 ac3
Language                                 : English
Service kind                             : Complete Main
Default                                  : No
Forced                                   : No

Text #1
ID                                       : 4
Format                                   : UTF-8
Codec ID                                 : S_TEXT/UTF8
Codec ID/Info                            : UTF-8 Plain Text
Duration                                 : 1 h 57 min
Language                                 : Polish
Default                                  : No
Forced                                   : No

Text #2
ID                                       : 5
Format                                   : PGS
Codec ID                                 : S_HDMV/PGS
Codec ID/Info                            : Picture based subtitle format used on BDs/HD-DVDs
Duration                                 : 1 h 52 min
Language                                 : English
Default                                  : No
Forced                                   : No

Podgląd:

Download:
Sorry but you are not allowed to view spoiler contents.

Torrent: Lone.Survivor.2013.MULTi.1080p.BluRay.x264.AC3.6ch.mkv.torrent (https://tryhackx.org/index.php?action=dlattach;topic=4.0;attach=1)
Pierwszy post: Ocalony / Lone Survivor (2013) [13.49 GB] [M/LP/NP] [AVC 15Mb/s] [AC-3 448kb/s] (https://tryhackx.org/index.php?topic=4.0)

Warezy:
Sorry but you are not allowed to view spoiler contents.