TryHackX - Forum

Piotruś Pan 2: Wielki powrót / Return to Never Land (2002) [5,02 GB] [M/DP/NP] [AVC 7 116 kb/s] [DTS 1 509 kb/s] [AAC LC 641 kb/s]

Offline dominikk26

  • Administrator
  • Nowy użytkownik
  • *****
    • Wiadomości: 15
    • Reputacja +0/-0
    • Zobacz profil
Piotruś Pan 2: Wielki powrót / Return to Never Land (2002) [5,02 GB] [M/DP/NP] [AVC 7 116 kb/s] [DTS 1 509 kb/s] [AAC LC 641 kb/s]

Szybki podgląd:
Polski tytuł: Piotruś Pan 2: Wielki powrót
Angielski tytuł: Return to Never Land
Rok premiery: 2002
Rozmiar: 5,02 GB, Czas trwania: 1 h 12 min, Typ wydania: BluRay
Informacje językowe: Dźwięk Angielski, Dźwięk dubbing Polski, Napisy Angielskie, Napisy Polskie.
Przepraszamy, ale nie możesz zobaczyć ukrytej zawartości. Musisz się zalogować, aby zobaczyć tę zawartość.

Writing library: libebml v1.4.2 + libmatroska v1.6.4

Format: AVC, Codec ID: V_MPEG4/ISO/AVC, Bit rate: 7 116 kb/s, Maximum bit rate: 7 116 kb/s, Original frame rate: 23.976 FPS
Width: 1 840 pixels, Height: 1 080 pixels, Display aspect ratio: 1.704, Bit depth: 8 bits, Stream size: 3.61 GiB (72%)

Audio: #1, Format: DTS, Codec ID: A_DTS, Bit rate: 1 509 kb/s, Sampling rate: 48.0 kHz, Bit depth: 24 bits
Language: English, Channel(s): 6 channels, Channel layout: C L R Ls Rs LFE, Stream size: 783 MiB (15%)

Audio: #2, Format: AAC LC, Codec ID: 2 / A_AAC-2, Bit rate: 641 kb/s, Sampling rate: 44.1 kHz, Bit depth: 16 bits
Language: Polish, Channel(s): 6 channels, Channel layout: C L R Ls Rs LFE, Stream size: 332 MiB (6%), Title: Polish dialogue stereo

Audio: #3, Format: AAC LC, Codec ID: 2 / A_AAC-2, Bit rate: 641 kb/s, Sampling rate: 44.1 kHz, Bit depth: 16 bits
Language: Polish, Channel(s): 6 channels, Channel layout: C L R Ls Rs LFE, Stream size: 332 MiB (6%), Title: Polish dialogue mono

Text: #1, Language: English, Format: UTF-8, Codec ID: S_TEXT/UTF8
Text: #2, Language: Polish, Format: UTF-8, Codec ID: S_TEXT/UTF8

Informacje:
Tytuł: Piotruś Pan 2: Wielki powrót / Return to Never Land
Ocena: IMDB - 6,7/10 (6 071), Filmweb - 5,8/10 (20 097)
Reżyseria: Robin Budd / Donovan Cook
Scenariusz: Carter Crocker / Temple Mathews
Gatunek: Animowany / Przygodowy
Produkcja: Australia / Kanada / USA
Premiera: 12 kwietnia 2002 (Polska) 10 lutego 2002 (świat)
Box Office: $109 862 682 na świecie

Opis:
Kontynuacja jednego z największych przebojów wytwórnia Walta Disneya - "Piotrusia Pana". Bohaterką obrazu jest córka Wandy - Jane, która w czasie II Wojny Światowej zostaje porwana przez kapitana Haka i uprowadzona do Nibylandii. Uratować może ją tylko Piotruś Pan.

Etykieta: (Czasami należy się zalogować aby zobaczyć)


Obsada:
Blayne Weaver jako Peter Pan
Harriet Owen jako Jane
Corey Burton jako Captain Hook
Jeff Bennett jako Smee
Kath Soucie jako Wendy Darling
Andrew McDonough jako Danny
Roger Rees jako Edward
Spencer Breslin jako Cubby
Bradley Pierce jako Nibs
Quinn Beswick jako Slightly
Aaron Spann jako Twins
Dan Cjakotellaneta jako Pirates
Jim Cummings jako Turk
Rob Paulsen jako Jukes
Clive Revill jako Elderly Officer
Frank Welker jako Nana II
Wally Wingert jako Chorus

Informacje dodatkowe:
Jest to stream filmowy z bluray z wstawionymi dwoma wersjami dubbingu polskiego zremasterowanego do dźwięku DTS. Jedna z wersji posiada dialog mono podobno jak w oryginalnej części a druga dialog posiada na stereo. Ponadto do filmu zostały ręcznie przepisane napisy w języku polskim, zgodne z ścieżką dialogową dubbingu.

Dane techniczne:
Kod: You are not allowed to view links. Register or Login
General
Unique ID                                : 34459578142718198846231051772841607289 (0x19ECAC601D7C903DC431734F172AC079)
Complete name                            : Peter.Pan.II.Return.to.Neverland.2002.1080p.BluRay.x264.mkv
Format                                   : Matroska
Format version                           : Version 4
File size                                : 5.02 GiB
Duration                                 : 1 h 12 min
Overall bit rate                         : 9 911 kb/s
Encoded date                             : UTC 2022-04-16 15:48:20
Writing application                      : mkvmerge v64.0.0 ('Willows') 64-bit
Writing library                          : libebml v1.4.2 + libmatroska v1.6.4

Video
ID                                       : 1
Format                                   : AVC
Format/Info                              : Advanced Video Codec
Format profile                           : High@L4.1
Format settings                          : CABAC / 4 Ref Frames
Format settings, CABAC                   : Yes
Format settings, Reference frames        : 4 frames
Codec ID                                 : V_MPEG4/ISO/AVC
Duration                                 : 1 h 12 min
Bit rate                                 : 7 116 kb/s
Width                                    : 1 840 pixels
Height                                   : 1 080 pixels
Display aspect ratio                     : 1.704
Frame rate mode                          : Constant
Frame rate                               : 23.976 (24000/1001) FPS
Color space                              : YUV
Chroma subsampling                       : 4:2:0
Bit depth                                : 8 bits
Scan type                                : Progressive
Bits/(Pixel*Frame)                       : 0.149
Stream size                              : 3.61 GiB (72%)
Writing library                          : x264 core 128 r2216 198a7ea
Encoding settings                        : cabac=1 / ref=4 / deblock=1:0:0 / analyse=0x3:0x113 / me=umh / subme=8 / psy=1 / psy_rd=1.00:0.00 / mixed_ref=1 / me_range=16 / chroma_me=1 / trellis=1 / 8x8dct=1 / cqm=0 / deadzone=21,11 / fast_pskip=1 / chroma_qp_offset=-2 / threads=12 / lookahead_threads=2 / sliced_threads=0 / nr=0 / decimate=1 / interlaced=0 / bluray_compat=0 / constrained_intra=0 / bframes=3 / b_pyramid=2 / b_adapt=2 / b_bias=0 / direct=3 / weightb=1 / open_gop=0 / weightp=2 / keyint=240 / keyint_min=24 / scenecut=40 / intra_refresh=0 / rc_lookahead=50 / rc=2pass / mbtree=1 / bitrate=7116 / ratetol=1.0 / qcomp=0.60 / qpmin=0 / qpmax=69 / qpstep=4 / cplxblur=20.0 / qblur=0.5 / ip_ratio=1.40 / aq=1:1.00
Language                                 : English
Default                                  : Yes
Forced                                   : No

Audio #1
ID                                       : 2
Format                                   : DTS
Format/Info                              : Digital Theater Systems
Codec ID                                 : A_DTS
Duration                                 : 1 h 12 min
Bit rate mode                            : Constant
Bit rate                                 : 1 509 kb/s
Channel(s)                               : 6 channels
Channel layout                           : C L R Ls Rs LFE
Sampling rate                            : 48.0 kHz
Frame rate                               : 93.750 FPS (512 SPF)
Bit depth                                : 24 bits
Compression mode                         : Lossy
Stream size                              : 783 MiB (15%)
Language                                 : English
Default                                  : Yes
Forced                                   : No

Audio #2
ID                                       : 3
Format                                   : AAC LC
Format/Info                              : Advanced Audio Codec Low Complexity
Codec ID                                 : 2 / A_AAC-2
Duration                                 : 1 h 12 min
Bit rate                                 : 641 kb/s
Channel(s)                               : 6 channels
Channel layout                           : C L R Ls Rs LFE
Sampling rate                            : 44.1 kHz
Frame rate                               : 43.066 FPS (1024 SPF)
Compression mode                         : Lossy
Stream size                              : 332 MiB (6%)
Title                                    : Polish dialogue stereo
Language                                 : Polish
Default                                  : Yes
Forced                                   : No

Audio #3
ID                                       : 4
Format                                   : AAC LC
Format/Info                              : Advanced Audio Codec Low Complexity
Codec ID                                 : 2 / A_AAC-2
Duration                                 : 1 h 12 min
Bit rate                                 : 641 kb/s
Channel(s)                               : 6 channels
Channel layout                           : C L R Ls Rs LFE
Sampling rate                            : 44.1 kHz
Frame rate                               : 43.066 FPS (1024 SPF)
Compression mode                         : Lossy
Stream size                              : 332 MiB (6%)
Title                                    : Polish dialogue mono
Language                                 : Polish
Default                                  : Yes
Forced                                   : No

Text #1
ID                                       : 5
Format                                   : UTF-8
Codec ID                                 : S_TEXT/UTF8
Codec ID/Info                            : UTF-8 Plain Text
Duration                                 : 1 h 2 min
Bit rate                                 : 43 b/s
Count of elements                        : 733
Stream size                              : 19.8 KiB (0%)
Language                                 : English
Default                                  : No
Forced                                   : No

Text #2
ID                                       : 6
Format                                   : UTF-8
Codec ID                                 : S_TEXT/UTF8
Codec ID/Info                            : UTF-8 Plain Text
Duration                                 : 1 h 2 min
Bit rate                                 : 43 b/s
Count of elements                        : 733
Stream size                              : 19.9 KiB (0%)
Language                                 : Polish
Default                                  : Yes
Forced                                   : No

Menu
00:00:00.000                             : en:00:00:00.000
00:03:12.275                             : en:00:03:12.275
00:09:41.080                             : en:00:09:41.080
00:12:26.329                             : en:00:12:26.329
00:14:39.378                             : en:00:14:39.378
00:17:47.191                             : en:00:17:47.191
00:22:40.317                             : en:00:22:40.317
00:23:25.696                             : en:00:23:25.696
00:27:40.909                             : en:00:27:40.909
00:30:16.898                             : en:00:30:16.898
00:33:26.963                             : en:00:33:26.963
00:35:45.894                             : en:00:35:45.894
00:37:25.452                             : en:00:37:25.452
00:39:00.547                             : en:00:39:00.547
00:40:17.874                             : en:00:40:17.874
00:43:46.374                             : en:00:43:46.374
00:44:29.417                             : en:00:44:29.417
00:46:53.144                             : en:00:46:53.144
00:48:57.143                             : en:00:48:57.143
00:50:42.414                             : en:00:50:42.414
00:55:59.731                             : en:00:55:59.731
00:57:26.693                             : en:00:57:26.693
00:59:14.509                             : en:00:59:14.509
01:01:24.639                             : en:01:01:24.639
01:02:42.008                             : en:01:02:42.008
01:04:58.269                             : en:01:04:58.269

Podgląd:

Download:
Przepraszamy, ale nie możesz zobaczyć ukrytej zawartości. Musisz się zalogować, aby zobaczyć tę zawartość.

You are not allowed to view links. Register or Login
You are not allowed to view links. Register or Login

Warezy:
Przepraszamy, ale nie możesz zobaczyć ukrytej zawartości. Musisz się zalogować, aby zobaczyć tę zawartość.
« Ostatnia zmiana: Kwietnia 27, 2022, 06:08:53 pm wysłana przez dominikk26 »